↑↓Torrent.by
Поиск
Логин: Регистрация
Пароль: Восстановить пароль
Загрузка...

Тайна Коко / Coco (2017) WEB-DLRip 720p | GreenРай Studio

Скачать tayna-koko-coco-2017-web-dlrip-720p-greenray-studio.torrent
U Магнитная ссылка Размер: 3.40 GB Раздают: 196 Качают: 35 Добавлен: 2018-02-15 05:41:36
Тайна Коко / Coco (2017) WEB-DLRip 720p | GreenРай Studio

Название: Тайна Коко
Оригинальное название: Coco
Год выпуска: 2017
Жанр:  Мультфильм, мюзикл, фэнтези, комедия, детектив, приключения, семейный
Режиссер: Ли Анкрич, Эдриан Молина
В ролях: Энтони Гонсалес, Гаэль Гарсиа Берналь, Бенджамин Брэтт, Аланна Юбак, Рене Виктор, Хайме Камиль, Альфонсо Арау, Херберт Сигенса, Габриэль Иглесиас, Ломбардо Бойяр

О фильме:
12-летний Мигель живет в мексиканской деревушке в семье сапожников и тайно мечтает стать музыкантом. Тайно — потому что в его семейном клане музыка считается проклятием. Когда-то его прадед оставил свою жену, прабабку Мигеля, ради мечты, которая теперь не дает спокойно жить Мигелю. С тех пор музыкальная тема в семье стала табу. Мигель обнаруживает, что между ним и его любимым певцом Эрнесто де ла Крусом, ныне покойным, существует некая — пока неназванная — связь. Паренек отправляется к своему кумиру в Страну Мертвых, где встречает души своих предков. Коко знакомится там с духом-трикстером по имени Эктор (в облике скелета), который становится его напарником-проводником. Вдвоем они отправляются на поиски де ла Круса.

 
Страна: США
Студия: Pixar Animation Studios, Walt Disney Pictures
Продолжительность: 01:41:01
Перевод: Любительский многоголосый [GreenРай Studio]

Файл
Кодек: x264
Качество: WEB-DLRip 720p
Видео: 4000 Кбит/с, 1280x536,  23.976 fps
Звук: Русский (AC3, 2 ch,640 Кбит/с)

Внимание,имеется  видео и аудио реклама от спонсора показа

Над релизом работали:
Состав дикторов Анастасия Гайдаржи, Илья Кочетков, Андрей Данилко
Руководитель проекта и координатор: Евгений Овчаренко
Организатор и координатор: Никита Марков
Пиар менеджер студии: Гриша Чернозатонский
Техническая поддержка: Александр Методий

Релиз:


[+] MediaInfo
General
Unique ID                   : 185848561448929447907012922599498398591 (0x8BD12186B2B0771CA5329AFC72593B7F)
Complete name               : E:workCoco.2017.P.BDRip.720p.mkv
Format                      : Matroska
Format version              : Version 4 / Version 2
File size                   : 3.40 GiB
Duration                    : 1 h 45 min
Overall bit rate mode       : Constant
Overall bit rate            : 4 612 kb/s
Encoded date                : UTC 2018-02-14 07:28:05
Writing application         : mkvmerge v8.3.0 ('Over the Horizon') 64bit
Writing library             : libebml v1.3.1 + libmatroska v1.4.2

Video
ID                          : 1
Format                      : AVC
Format/Info                 : Advanced Video Codec
Format profile              : Main@L3.1
Format settings             : CABAC / 3 Ref Frames
Format settings, CABAC      : Yes
Format settings, ReFrames   : 3 frames
Format settings, GOP        : M=4, N=15
Codec ID                    : V_MPEG4/ISO/AVC
Duration                    : 1 h 45 min
Bit rate mode               : Constant
Bit rate                    : 4 000 kb/s
Width                       : 1 280 pixels
Height                      : 536 pixels
Display aspect ratio        : 2.40:1
Frame rate mode             : Constant
Frame rate                  : 23.976 (24000/1001) FPS
Standard                    : NTSC
Color space                 : YUV
Chroma subsampling          : 4:2:0
Bit depth                   : 8 bits
Scan type                   : Progressive
Bits/(Pixel*Frame)          : 0.243
Stream size                 : 2.93 GiB (86%)
Language                    : English
Default                     : Yes
Forced                      : No
Color range                 : Limited

Audio
ID                          : 2
Format                      : AC-3
Format/Info                 : Audio Coding 3
Codec ID                    : A_AC3
Duration                    : 1 h 45 min
Bit rate mode               : Constant
Bit rate                    : 640 kb/s
Channel(s)                  : 2 channels
Channel positions           : Front: L R
Sampling rate               : 48.0 kHz
Frame rate                  : 31.250 FPS (1536 SPF)
Bit depth                   : 16 bits
Compression mode            : Lossy
Stream size                 : 483 MiB (14%)
Service kind                : Complete Main
Default                     : Yes
Forced                      : No




Скриншоты:
[+] Всего файлов в раздаче - 1:
Coco.2017.P.BDRip.720p.mkv3.40 GB

Текущая раздача:
ДатаКомментарии    РазмерПиры
2018-02-15 U Тайна Коко / Coco (2017) WEB-DLRip 720p | GreenРай Studio 3.40 GB ↑ 196 ↓ 35

Показать еще раздачи по запросу тайна:
Сегодня U Тайна магазина игрушек / Tea Pets (2017) WEB-DLRip-AVC от OlLanDGroup | Локализованная версия | iTunes 1.50 GB ↑ 77 ↓ 13
Сегодня U Тайна магазина игрушек / Tea Pets (2017) WEB-DLRip от MegaPeer | Локализованная версия | iTunes 1.46 GB ↑ 215 ↓ 30
Вчера U Тайна магазина игрушек / Tea Pets (2017) WEB-DL 1080p | iTunes 3.34 GB ↑ 103 ↓ 66
2018-10-26 U Семейная тайна [01-04 из 04] (2018) SATRip 2.42 GB ↑ 115 ↓ 63
2018-10-06 U Тайна Ватиканской рукописи: великое пророчество о России (2018) SATRip 1.31 GB ↑ 247 ↓ 36
2018-09-26 U Улика из прошлого. Дело гастронома №1: тайна торговой мафии (2018) SATRip 513.44 MB ↑ 77 ↓ 13
2018-09-19 U Улика из прошлого. Тайна эпидемий: смерть из пробирки (2018) SATRip 489.55 MB ↑ 71 ↓ 9

Отзывы
Зарегистрируйтесь чтобы добавить комментарий.
Обратная связь
Copyleft ©