↑↓Torrent.by
Поиск
Логин: Регистрация
Пароль: Восстановить пароль
Загрузка...

Эффект воздействия / The Spearhead Effect (2017) WEB-DLRip 720p | GreenРай Studio

Скачать effekt-vozdeystviya-the-spearhead-effect-2017-web-dlrip-720p-greenray-studio.torrent
U Магнитная ссылка Размер: 2.66 GB Раздают: 36 Качают: 11 Добавлен: 2018-02-15 05:43:11
Эффект воздействия / The Spearhead Effect (2017) WEB-DLRip 720p | GreenРай Studio

Название: Эффект воздействия
Оригинальное название: The Spearhead Effect
Год выпуска: 2017
Жанр:  Триллер
Режиссер: Брэндон Мур, Калеб Смит
В ролях: Дарлин Фогел, Алекс МакАртур, Тара Браун, Калеб Смит, Джейм Галлахер, Джереми Сайкес, Пол Шакман, Джейкоб Дуайт Рамирес, Дилан Саккоччио

О фильме:
После ужасной семейной трагедии Джейк Стетсон пересматривает систему правосудия современного общества, и приходит к выводу, что она не удовлетворяет всех потребностей человека и не в силах обеспечить его полную безопасность. Джейк начинает освещать свои мысли в Интернете, и получает большую поддержку со стороны общества. Но со временем всё выходит из-под контроля.

 
Страна: США
Студия: Maelstrom
Продолжительность: 01:28:51
Перевод: Любительский многоголосый [GreenРай Studio]

Файл
Кодек: x.264
Качество: WEB-DLRip 720p
Видео: 4000 Кбит/с, 1280x544, 23.976 fps
Звук: Русский (AC3, 2 ch, 384 Кбит/с)

Внимание,имеется  видео и аудио реклама от спонсора показа

Над релизом работали:
Состав дикторов Анастасия Гайдаржи, Руслан Чериев, Олег Винник
Руководитель проекта и координатор: Евгений Овчаренко
Организатор и координатор: Никита Марков
Пиар менеджер студии: Гриша Чернозатонский
Техническая поддержка: Александр Методий

Релиз:


[+] MediaInfo
General
Unique ID                   : 209742096130190925278991547332992134845 (0x9DCADBBD0F37585191E324483DB36EBD)
Complete name               : E:workThe.Spearhead.Effect.2017.P.WEB-DL.720p.mkv
Format                      : Matroska
Format version              : Version 4 / Version 2
File size                   : 2.66 GiB
Duration                    : 1 h 28 min
Overall bit rate mode       : Constant
Overall bit rate            : 4 315 kb/s
Encoded date                : UTC 2018-02-13 14:03:54
Writing application         : mkvmerge v8.3.0 ('Over the Horizon') 64bit
Writing library             : libebml v1.3.1 + libmatroska v1.4.2

Video
ID                          : 1
Format                      : AVC
Format/Info                 : Advanced Video Codec
Format profile              : Main@L3.1
Format settings             : CABAC / 3 Ref Frames
Format settings, CABAC      : Yes
Format settings, ReFrames   : 3 frames
Format settings, GOP        : M=4, N=15
Codec ID                    : V_MPEG4/ISO/AVC
Duration                    : 1 h 28 min
Bit rate mode               : Constant
Bit rate                    : 4 000 kb/s
Width                       : 1 280 pixels
Height                      : 544 pixels
Display aspect ratio        : 2.35:1
Frame rate mode             : Constant
Frame rate                  : 23.976 (24000/1001) FPS
Standard                    : NTSC
Color space                 : YUV
Chroma subsampling          : 4:2:0
Bit depth                   : 8 bits
Scan type                   : Progressive
Bits/(Pixel*Frame)          : 0.240
Stream size                 : 2.42 GiB (91%)
Language                    : English
Default                     : Yes
Forced                      : No
Color range                 : Limited

Audio
ID                          : 2
Format                      : AC-3
Format/Info                 : Audio Coding 3
Codec ID                    : A_AC3
Duration                    : 1 h 28 min
Bit rate mode               : Constant
Bit rate                    : 384 kb/s
Channel(s)                  : 2 channels
Channel positions           : Front: L R
Sampling rate               : 48.0 kHz
Frame rate                  : 31.250 FPS (1536 SPF)
Bit depth                   : 16 bits
Compression mode            : Lossy
Stream size                 : 243 MiB (9%)
Service kind                : Complete Main
Default                     : Yes
Forced                      : No




Скриншоты:
[+] Всего файлов в раздаче - 1:
The.Spearhead.Effect.2017.P.WEB-DL.720p.mkv2.66 GB

Показать еще раздачи по запросу эффект:
2018-02-15 U Эффект воздействия / The Spearhead Effect (2017) WEB-DLRip | GreenРай Studio 1.36 GB ↑ 79 ↓ 26
2017-12-25 U Эффект бабочки / The Butterfly Effect (2004) BDRip-HEVC 1080p от ХиМиК | D | Режиссёрская версия 5.38 GB ↑ 311 ↓ 64
2017-12-23 U Филип Зимбардо - Эффект Люцифера. Почему хорошие люди превращаются в злодеев (2015) FB2 6.00 MB ↑ 152 ↓ 3
2016-06-06 U Эффект рения / Effect of Rhenium (2014) DVB от AND03AND 909.58 MB ↑ 2441 ↓ 39
2015-12-12 U Эффект эха / Echo Effect (2015) HDRip | L2 1К1.45 GB ↑ 372 ↓ 261
2015-12-12 U Эффект эха / Echo Effect (2015) BDRip 720p | L2 4.29 GB ↑ 112 ↓ 131
2015-10-13 U Звуки природы - Голоса птиц - Лечебный эффект звуков (2015) MP3 1К449.17 MB ↑ 1850 ↓ 33

Отзывы
_Nikon_
Микробюджетный инди триллер, начинается вроде нормально, обиженный жизнью дрищеватый блогер верещит на своем канале, что весь мир - гавно и активно рубит хайп, что по неизвестной причине приводит к формированию каких-то непонятных кагалов, которые поддерживают концепцию и нагибают всякую жбонь, попутно вовлекая незадачливого хайпожора в свои сомнительные эскапады. Создатели посмотрели "Бойцовский клуб", ничего не поняли, потом посмотрели фигню типа "Голодный кролик атакует", ну там где обыватели пытаются сами бороться с преступностью, но в итоге перегибают палку и сами становятся такими же, и решили пойти к успеху своим путем, блин, кажется я заспойлерил основную идею сюжета (и спас многих от просмотра весьма унылой хренотени). Да ладно, на самом деле у аффтаров-дебютантов есть хитрый план, правда, они не спешат его реализовывать, ибо уже минуты с 20-й началась вторичная и малость слабоумная пурга, отягощаемая не очень хорошей актерской игрой. Возможно, хотели показать что-то очень концептуальное на тему неправильного мироустройства, на деле получилась обычная триллероподобная фигня про отморозков, которые могут засрать любую идею, лишь бы только представилась возможность почесать кулаки. Хм, а в моем изложении авторский замысел звучит не так уж плохо. Финальный твист бессмысленный, но ничуть не более, чем сюжет в целом.

Что-то такое придумали, но не продумали, идея вроде есть, но подать её нормально не сподобились. Но это полбеды, кино коряво и неумело снято, видно, что старались, но надо еще многому учиться, а также четко понимать, что, собственно, хочешь снять до начала съемок, это важно. Иначе придется вешать зрителям лапшу на уши и утверждать, что так и было. Но мы же знаем, что нет.

Зарегистрируйтесь чтобы добавить комментарий.
Обратная связь
Copyleft ©