↑↓Torrent.by
Поиск
Логин: Регистрация
Пароль: Восстановить пароль
Загрузка...

Мифы (2017) WEB-DL 720p

Скачать mify-2017-web-dl-720p.torrent
U Магнитная ссылка Размер: 2.87 GB Раздают: 560 Качают: 85 Добавлен: 2018-02-15 12:33:39
Мифы (2017) WEB-DL 720p

Название: Мифы
Год выхода: 2017
Жанр: комедия
Режиссер: Александр Молочников
В ролях: Яннис Пападопулос, Фёдор Бондарчук, Сергей Безруков, Иван Ургант, Милош Бикович, Паулина Андреева, Ксения Раппопорт, Виктория Исакова, Максим Суханов, Андрей Смоляков

О фильме:
Последняя надежда русского кино, продюсер и режиссер Федор, торчит денег за музыкальный клип браткам из 90-х. Артист Сергей сыграл всех от Иисуса Христа до белочки. У Сергея кончились роли, он в депрессии, и не знает, как жить дальше. Телеведущий страны номер один, Иван, не может перестать шутить в обычной жизни. Девушка Ивана не понимает, почему он смешит ее за завтраком, в постели и даже на похоронах. Ничего не напоминает? Нищий иностранец по чистой случайности попадает в самую гущу жизни богатых и знаменитых. Выясняется, что все наши представления о жизни звезд — мифы. На самом деле все гораздо хуже. Пытаясь помочь звездам решить их проблемы, наш герой влюбляется в жену Большого градоначальника и решает сделать все, чтобы похитить ее с Московского Олимпа.

Страна: Россия
Студия: Art Pictures Studio, Hype Film
Продолжительность: 01:33:19
Перевод: не требуется

Файл
Кодек: H.264
Качество: WEB-DL 720p
Видео: AVC, 1280x530 (2.40:1), 23.976 fps ~  3928 Kbps
Звук: AC3, 48 KHz, 6 ch ~  384 Kb/s
Субтитры: отсутствуют
[+] MI:

Общее
Уникальный идентификатор : 214804441042972459662761551735207166758 (0xA199D49CE80CAD95AB92752B50930326)
Полное имя : Q:TorFM1f1.2O17.O.WeB-DL.72Op.mkv
Формат : Matroska
Версия формата : Version 2
Размер файла : 2,87 Гбайт
Продолжительность : 1 ч. 33 м.
Общий поток : 4400 Кбит/сек
Дата кодирования : UTC 2018-02-14 00:59:09
Программа кодирования : mkvmerge v8.3.0 ('Over the Horizon') 64bit
Библиотека кодирования : libebml v1.3.1 + libmatroska v1.4.2
DURATION : 01:33:19.219000000
NUMBER_OF_FRAMES : 134247
NUMBER_OF_BYTES : 2809411356
_STATISTICS_WRITING_APP : mkvmerge v8.3.0 ('Over the Horizon') 64bit
_STATISTICS_WRITING_DATE_UTC : 2018-02-14 00:59:09
_STATISTICS_TAGS : BPS DURATION NUMBER_OF_FRAMES NUMBER_OF_BYTES

Видео
Идентификатор : 1
Формат : AVC
Формат/Информация : Advanced Video Codec
Профиль формата : High@L4.1
Параметр CABAC формата : Да
Параметр ReFrames формата : 4 кадра
Идентификатор кодека : V_MPEG4/ISO/AVC
Продолжительность : 1 ч. 33 м.
Битрейт : 3928 Кбит/сек
Ширина : 1280 пикселей
Высота : 530 пикселей
Соотношение сторон : 2,40:1
Частота кадров : 23,976 кадра/сек
Цветовое пространство : YUV
Субдискретизация насыщенности : 4:2:0
Битовая глубина : 8 бит
Тип развёртки : Прогрессивная
Бит/(Пиксели*Кадры) : 0.242
Размер потока : 2,56 Гбайт (89%)
Язык : English
Default : Да
Forced : Нет

Аудио
Идентификатор : 2
Формат : AC-3
Формат/Информация : Audio Coding 3
Расширение режима : CM (complete main)
Идентификатор кодека : A_AC3
Продолжительность : 1 ч. 33 м.
Вид битрейта : Постоянный
Битрейт : 384 Кбит/сек
Каналы : 6 каналов
Расположение каналов : Front: L C R, Side: L R, LFE
Частота : 48,0 КГц
Битовая глубина : 16 бит
Метод сжатия : С потерями
Размер потока : 256 Мбайт (9%)
Язык : Russian
Default : Да
Forced : Нет

Меню
00:00:00.000 : en:1
00:09:22.562 : en:2
00:14:38.336 : en:3
00:20:17.967 : en:4
00:26:52.152 : en:5
00:32:09.886 : en:6
00:35:22.536 : en:7
00:40:54.159 : en:8
00:44:06.434 : en:9
00:47:38.771 : en:10
00:52:49.665 : en:11
00:56:38.810 : en:12
01:04:59.894 : en:13
01:11:10.014 : en:14
01:17:47.911 : en:15
01:25:58.234 : en:16



Скриншоты:
[+] Всего файлов в раздаче - 1:
M1f1.2O17.O.WeB-DL.72Op.mkv2.87 GB

Текущая раздача:
ДатаКомментарии    РазмерПиры
2018-02-15 U Мифы (2017) WEB-DL 720p 2.87 GB ↑ 560 ↓ 85

Показать еще раздачи по запросу мифы:
2018-06-21 U Сергей Гуриев - Мифы экономики. Заблуждения и стереотипы, которые распространяют СМИ и политики (2011) FB2, RTF 5.11 MB ↑ 34 ↓ 6
2018-06-04 U Ольга Арнольд - Люди и звери. Мифы и реальность (2018) FB2 1К10.32 MB ↑ 48 ↓ 5
2018-02-19 U Мифы и чудовища / Myths and Monsters [S01] (2017) HDTVRip 720p | P1 7.80 GB ↑ 73 ↓ 32
2018-02-18 U Мифы и чудовища / Myths and Monsters [S01] (2017) DVB 720p | 50 fps | P1 14.57 GB ↑ 114 ↓ 89
2018-02-16 U Мифы (2017) WEB-DLRip от MegaPeer | iTunes 746.33 MB ↑ 322 ↓ 62
2018-02-14 U Мифы (2017) WEB-DLRip от MegaPeer | iTunes 2К1.46 GB ↑ 614 ↓ 235
2018-01-16 U Мифы народов мира 12. Огонь Олимпа. Коллекционное издание / Myths Of The World 12: Fire Of Olympus. Collectors Edition (2017) PC 722.44 MB ↑ 105 ↓ 41

Отзывы
Зарегистрируйтесь чтобы добавить комментарий.
Обратная связь
Copyleft ©