↑↓Torrent.by
Поиск
Логин: Регистрация
Пароль: Восстановить пароль
Загрузка...

Пираты Сомали / The Pirates of Somalia (2017) BDRemux 1080p от MediaClub | L

Скачать piraty-somali-the-pirates-of-somalia-2017-bdremux-1080p-ot-mediaclub-l.torrent
U Магнитная ссылка Размер: 21.22 GB Раздают: 58 Качают: 30 Добавлен: 2018-02-18 04:43:09
Пираты Сомали / The Pirates of Somalia (2017) BDRemux 1080p от MediaClub | L

Название: Пираты Сомали
Оригинальное название: The Pirates of Somalia
Год выхода: 2017
Жанр: Драма, биография
Режиссер: Брайан Бакли
В ролях: Аль Пачино, Эван Питерс, Мелани Гриффит, Баркхад Абди, Расселл Познер, Корал Пенья, Киана Мадани, Филип Эттинджер, Эйдан Уайток, Роберт Хоббс

О фильме:
В 2008 году журналист-новобранец Джей Бахадур формирует полусырой план по внедрению себя в банду пиратов Сомали. В конечном счете он добивается своего и первым смотрит изнутри на то, кто такие эти люди, как они живут, и что за силы ими управляют.

Страна: Сомали, Кения, Судан, ЮАР, США
Студия: BCDF Pictures
Продолжительность: 01:57:44
Перевод: Любительский многоголосый

Файл
Кодек: h.264
Качество: BDRemux 1080p
Видео: MPEG-4 AVC, 22.0 Mбит/с, 1920x1080, 23,976 кадр/с
Звук:
Русский (AC3, 2 ch, 192 Кбит/с) / Любительский многоголосый (Синема УС)
Английский (DTS-HD MA, 6 ch, 3645 Кбит/с)
Субтитры: Английские

Семпл

Релиз: | Silverok


[+] MI
General
Unique ID                                : 245272781496598527996656362641303227899 (0xB885D1C6FFED484932245D51A1274DFB)
Complete name                            : D:uTorrentPiraty.Somali.2017.BDRemux.1080p.MediaClub.mkv
Format                                   : Matroska
Format version                           : Version 4 / Version 2
File size                                : 21.2 GiB
Duration                                 : 1 h 57 min
Overall bit rate mode                    : Variable
Overall bit rate                         : 25.8 Mb/s
Encoded date                             : UTC 2018-02-16 23:51:48
Writing application                      : mkvmerge v19.0.0 ('Brave Captain') 64-bit
Writing library                          : libebml v1.3.5 + libmatroska v1.4.8
Cover                                    : Yes
Attachments                              : cover.jpg

Video
ID                                       : 1
Format                                   : AVC
Format/Info                              : Advanced Video Codec
Format profile                           : High@L4.1
Format settings                          : CABAC / 4 Ref Frames
Format settings, CABAC                   : Yes
Format settings, RefFrames               : 4 frames
Format settings, GOP                     : M=3, N=24
Codec ID                                 : V_MPEG4/ISO/AVC
Duration                                 : 1 h 57 min
Bit rate mode                            : Variable
Bit rate                                 : 22.0 Mb/s
Maximum bit rate                         : 35.0 Mb/s
Width                                    : 1 920 pixels
Height                                   : 1 080 pixels
Display aspect ratio                     : 16:9
Frame rate mode                          : Constant
Frame rate                               : 23.976 (24000/1001) FPS
Standard                                 : NTSC
Color space                              : YUV
Chroma subsampling                       : 4:2:0
Bit depth                                : 8 bits
Scan type                                : Progressive
Bits/(Pixel*Frame)                       : 0.442
Stream size                              : 18.1 GiB (85%)
Title                                    : BDRemux 1080p by Silverok
Default                                  : Yes
Forced                                   : No
Color range                              : Limited
Color primaries                          : BT.709
Transfer characteristics                 : BT.709
Matrix coefficients                      : BT.709

Audio #1
ID                                       : 2
Format                                   : AC-3
Format/Info                              : Audio Coding 3
Codec ID                                 : A_AC3
Duration                                 : 1 h 57 min
Bit rate mode                            : Constant
Bit rate                                 : 192 kb/s
Channel(s)                               : 2 channels
Channel positions                        : Front: L R
Sampling rate                            : 48.0 kHz
Frame rate                               : 31.250 FPS (1536 SPF)
Bit depth                                : 16 bits
Compression mode                         : Lossy
Stream size                              : 162 MiB (1%)
Title                                    : Любительский многоголосый (Синема УС)
Language                                 : Russian
Service kind                             : Complete Main
Default                                  : Yes
Forced                                   : No

Audio #2
ID                                       : 3
Format                                   : DTS
Format/Info                              : Digital Theater Systems
Format profile                           : MA / Core
Codec ID                                 : A_DTS
Duration                                 : 1 h 57 min
Bit rate mode                            : Variable / Constant
Bit rate                                 : 3 645 kb/s / 1 509 kb/s
Channel(s)                               : 6 channels
Channel positions                        : Front: L C R, Side: L R, LFE
Sampling rate                            : 48.0 kHz
Frame rate                               : 93.750 FPS (512 SPF)
Bit depth                                : 24 bits
Compression mode                         : Lossless / Lossy
Stream size                              : 3.00 GiB (14%)
Language                                 : English
Default                                  : No
Forced                                   : No

Text
ID                                       : 4
Format                                   : UTF-8
Codec ID                                 : S_TEXT/UTF8
Codec ID/Info                            : UTF-8 Plain Text
Duration                                 : 1 h 54 min
Bit rate                                 : 81 b/s
Count of elements                        : 2060
Stream size                              : 68.3 KiB (0%)
Language                                 : English
Default                                  : Yes
Forced                                   : No

Menu
00:00:00.000                             : en:Chapter 01
00:09:41.498                             : en:Chapter 02
00:19:47.853                             : en:Chapter 03
00:31:13.622                             : en:Chapter 04
00:42:48.274                             : en:Chapter 05
00:51:17.199                             : en:Chapter 06
00:58:55.824                             : en:Chapter 07
01:06:27.734                             : en:Chapter 08
01:15:04.291                             : en:Chapter 09
01:26:05.619                             : en:Chapter 10
01:42:17.423                             : en:Chapter 11
01:50:55.774                             : en:Chapter 12



Скриншоты:
[+] Всего файлов в раздаче - 1:
Piraty.Somali.2017.BDRemux.1080p.MediaClub.mkv21.22 GB

Показать еще раздачи по запросу пираты:
2019-04-15 U Пираты Сомали / The Pirates of Somalia (2017) BDRip от MegaPeer | P 1.41 GB ↑ 110 ↓ 41
2019-04-15 U Пираты Сомали / The Pirates of Somalia (2017) BDRip 1080p | iTunes 8.87 GB ↑ 182 ↓ 78
2018-05-10 U Пираты Эдельвейса / Edelweisspiraten (2004) DVDRip | А 1К1.37 GB ↑ 94 ↓ 21
2018-02-17 U Пираты Сомали / The Pirates of Somalia (2017) BDRip от MegaPeer | L 1.46 GB ↑ 147 ↓ 63
2018-01-23 U Дирк Гузманн - Ледовые пираты (2018) FB2 1.42 MB ↑ 117 ↓ 3
2018-01-10 U Пираты Сомали / The Pirates of Somalia (2017) WEB-DLRip от Portablius | L 699.42 MB ↑ 143 ↓ 74
2018-01-10 U Пираты Сомали / The Pirates of Somalia (2017) WEB-DLRip-AVC от Kaztorrents | L 1.46 GB ↑ 130 ↓ 101

Отзывы
Зарегистрируйтесь чтобы добавить комментарий.
Обратная связь
Copyleft ©