↑↓Torrent.by
Поиск
Логин: Регистрация
Пароль: Восстановить пароль
Загрузка...

Эй, Арнольд! Приключения в джунглях / Hey Arnold: The Jungle Movie (2017) WEB-DL 1080p | D

Скачать ey-arnold-priklyucheniya-v-dzhunglyah-hey-the-jungle-movie-2017-web-dl-1080p-d.torrent
U Магнитная ссылка Размер: 2.61 GB Раздают: 60 Качают: 12 Добавлен: 2018-02-18 04:43:16
Эй, Арнольд! Приключения в джунглях / Hey Arnold: The Jungle Movie (2017) WEB-DL 1080p | D

Название: Эй, Арнольд! Приключения в джунглях
Оригинальное название: Hey Arnold: The Jungle Movie
Год выпуска: 2017
Жанр:  мультфильм, комедия, приключения, семейный
Режиссер: Рэйми Музкиз, Stu Livingston
В ролях: Мэйсон Коттон (Arnold), Бенжамин Флорес мл. (Gerald), Франческа Смит (Helga), Крэйг Бартлетт (Miles / Monkeyman / Abner / Brainy), Антониетта Стелла (Stella), Дэн Кастелланета (Grandpa), Тресс МакНилл (Grandma / Homeless Woman), Морис ЛаМарш (Big Bob / Homeless Man #1 / Flunky Guard), Джет Юргенсмейер (Stinky), Карлос Аласраки (Eduardo), Даниэль Джудовитс (Big Patty), Gavin Lewis (Eugene)

О фильме:
«Кино из джунглей» расскажет нам о поисках пропавших родителей Арнольда. Для этого ему и его друзьям предстоит пережить опасное путешествие в джунгли Сан-Лоренсо, а также разобраться со своими отношениями с Хельгой.

Страна: США
Студия: Nickelodeon Animation Studios, Snee-Oosh Productions
Продолжительность: 01:21:16
Перевод: Профессиональный (дублированный) Nickelodeon

Файл
Качество: WEB-DL 1080p
Формат: Matroska
Видео: 1920х1080 at 23.976 fps, MPEG-4 AVC, ~4000 kbps avg
Аудио#1: Russian: 48 kHz, AC3, 2/0 (L,R) ch, ~192 kbps avg |Дубляж, Nickelodeon|
Аудио#2: English: 48 kHz, EAC3, 2/0 (L,R) ch, ~224 kbps avg
Субтитры: English

***Релиз: Lexa1988-L1.
***Nickelodeon при показе вырезал эпизод прощания мистера Симмонса со своим коллегой Питером (00:21:20-00:21:45). На этот момент добавлен перевод от Train Studio.


[+] MediaInfo
Общее
Уникальный идентификатор                 : 253814866567507219713788200271820625914 (0xBEF2F71662479B58BEC92327792017FA)
Полное имя                               : Эй, Арнольд! Кино из джунглей (2018).mkv
Формат                                   : Matroska
Версия формата                           : Version 4 / Version 2
Размер файла                             : 2,61 Гбайт
Продолжительность                        : 1 ч. 21 м.
Режим общего битрейта                    : Переменный
Общий поток                              : 4597 Кбит/сек
Дата кодирования                         : UTC 2018-02-17 08:07:16
Программа кодирования                    : mkvmerge v15.0.0 ('Duel with the Devil') 64-bit
Библиотека кодирования                   : libebml v1.3.5 + libmatroska v1.4.5

Видео
Идентификатор                            : 1
Формат                                   : AVC
Формат/Информация                        : Advanced Video Codec
Профиль формата                          : High@L4.0
Параметр CABAC формата                   : Да
Параметр ReFrames формата                : 4 кадра
Идентификатор кодека                     : V_MPEG4/ISO/AVC
Продолжительность                        : 1 ч. 21 м.
Вид битрейта                             : Переменный
Битрейт                                  : 4090 Кбит/сек
Максимальный битрейт                     : 15,0 Мбит/сек
Ширина                                   : 1920 пикселей
Высота                                   : 1080 пикселей
Соотношение сторон                       : 16:9
Режим частоты кадров                     : Постоянный
Частота кадров                           : 23,976 кадра/сек
Цветовое пространство                    : YUV
Субдискретизация насыщенности            : 4:2:0
Битовая глубина                          : 8 бит
Тип развёртки                            : Прогрессивная
Бит/(Пиксели*Кадры)                      : 0.082
Размер потока                            : 2,32 Гбайт (89%)
Язык                                     : English
Default                                  : Да
Forced                                   : Нет
Основные цвета                           : BT.709
Характеристики трансфера                 : BT.709
Коэффициенты матрицы                     : BT.709

Аудио #1
Идентификатор                            : 2
Формат                                   : AC-3
Формат/Информация                        : Audio Coding 3
Расширение режима                        : CM (complete main)
Параметр Endianness формата              : Big
Идентификатор кодека                     : A_AC3
Продолжительность                        : 1 ч. 21 м.
Вид битрейта                             : Постоянный
Битрейт                                  : 192 Кбит/сек
Каналы                                   : 2 канала
Расположение каналов                     : Front: L R
Частота                                  : 48,0 КГц
Битовая глубина                          : 16 бит
Метод сжатия                             : С потерями
Размер потока                            : 112 Мбайт (4%)
Язык                                     : Russian
Default                                  : Нет
Forced                                   : Нет

Аудио #2
Идентификатор                            : 3
Формат                                   : E-AC-3
Формат/Информация                        : Audio Coding 3
Параметр Endianness формата              : Big
Идентификатор кодека                     : A_EAC3
Продолжительность                        : 1 ч. 21 м.
Вид битрейта                             : Постоянный
Битрейт                                  : 224 Кбит/сек
Каналы                                   : 2 канала
Расположение каналов                     : Front: L R
Частота                                  : 48,0 КГц
Метод сжатия                             : С потерями
Размер потока                            : 130 Мбайт (5%)
Язык                                     : English
Default                                  : Да
Forced                                   : Нет

Текст
Идентификатор                            : 4
Формат                                   : UTF-8
Идентификатор кодека                     : S_TEXT/UTF8
Идентификатор кодека/Информация          : UTF-8 Plain Text
Язык                                     : English
Default                                  : Нет
Forced                                   : Нет



Скриншоты:
[+] Всего файлов в раздаче - 1:
Эй, Арнольд! Кино из джунглей (2018).mkv2.61 GB

Текущая раздача:
ДатаКомментарии    РазмерПиры
2018-02-18 U Эй, Арнольд! Приключения в джунглях / Hey Arnold: The Jungle Movie (2017) WEB-DL 1080p | D 2.61 GB ↑ 60 ↓ 12

Похожие раздачи по запросу - арнольд:
2018-06-04 U Ольга Арнольд - Люди и звери. Мифы и реальность (2018) FB2 1К10.32 MB ↑ 38 ↓ 5
2018-02-18 U Эй, Арнольд! Приключения в джунглях / Hey Arnold: The Jungle Movie (2017) WEB-DLRip от ExKinoRay | D 1.47 GB ↑ 84 ↓ 16
2018-01-28 U Эй, Арнольд! Приключения в джунглях / Hey Arnold! The Jungle Movie (2017) WEB-DLRip | P 1.06 GB ↑ 268 ↓ 53
2018-01-27 U Эй, Арнольд! Приключения в джунглях / Hey Arnold! The Jungle Movie (2017) WEB-DL 1080p | P 2.59 GB ↑ 107 ↓ 60

Отзывы
Зарегистрируйтесь чтобы добавить комментарий.
Обратная связь
Copyleft ©