↑↓Torrent.by
Поиск
Логин: Регистрация
Пароль: Восстановить пароль
Загрузка...

Прогулка с Богами: Два мира / Along with the Gods: The Two Worlds (2017) HDTVRip-AVC от Batafurai Team и SOUND-GROUP | L2

Скачать progulka-s-bogami-dva-mira-along-with-the-gods-two-worlds-2017-hdtvrip-avc-ot-batafurai-team-i-sound-group-l2.torrent
U Магнитная ссылка Размер: 2.05 GB Раздают: 159 Качают: 37 Добавлен: 2018-02-18 04:52:47
Прогулка с Богами: Два мира / Along with the Gods: The Two Worlds (2017) HDTVRip-AVC от Batafurai Team и SOUND-GROUP | L2

Прогулка с Богами: Два мира / Along with the Gods: The Two Worlds]

Год выпуска: 2018
Страна: Южная Корея
Жанр:  фэнтези, драма
Продолжительность: 02:19:45
Перевод: Любительский (двухголосый закадровый)
Русские субтитры: есть

Режиссер: Ким Ён Хва / Kim Yong Hwa

В ролях:   Ха Чон У, Ча Тэ Хён, Чжу Джи Хун, Ли Чон Джэ, ДиО, Ким Хян Ги,  Чон Хэ Гюн, Ким Соль Хён, Чон У, Ма Дон Сок, О Даль Су, Ким Дон Ук, Ким Ха Ныль, Ли Чжун Хёк, Им Вон Хи, Чан Кван, Ким Джи Ан, Ким Хэ Сук, Ким Су Ан

Описание: Фильм снят по одноимённому вебтуну. Планируется вторая часть!
После смерти за душой умершего приходит ангел смерти и предлагает пройти семь испытаний за 49 дней.

КанРим - лидер группы ангелов смерти(Хранителей) и ему нравятся люди. Однажды к нему попадает ЧаХон, который соглашается пройти загробные испытания.

Релиз:

Доп. информация:Перевод осуществляла команда фансаб-группы "Zipper"

Перевод, Редакция и тайпсет: Yo_Jelly, FireQueen

Озвучивание: Ворон и Wenlana

Смотреть обязательно с форсированными субтитрами на надписи!
Прежде чем качать видео и комментировать, скачайте сэмпл и послушайте!


Качество видео: HDTVRip-AVC - Семпл


Исходник: Along.With.the.Gods.The.Two.Worlds.2017.1080p.FHDRip.H264.AAC-NonDRM
Формат видео: MKV
Видео: 720x304 (2,35:1), 23,976 fps, x264 ~1647 kbps avg, 0.314 bit/pixel
Аудио: 48 kHz, AC3 Dolby Digital, 2/0 (L,R) ch, ~224 kbps (Русский)
Аудио 2: 48 kHz, AC3 Dolby Digital, 2/0 (L,R) ch, ~224 kbps (Корейский)
Формат субтитров: [форсированный(надписи) / полные]softsub (ass)

Субтитры выложены с разрешения фансаб-группы "Zipper"
Озвучено с разрешения фансаб-группы "Zipper"
[+] отчет MediaInfo

Формат                                   : Matroska
Версия формата                           : Version 4 / Version 2
Размер файла                             : 2,05 Гбайт
Продолжительность                        : 2 ч. 19 м.
Общий поток                              : 2099 Кбит/сек
Дата кодирования                         : UTC 2018-02-17 17:30:42
Программа кодирования                    : mkvmerge v8.2.0 ('World of Adventure') 32bit
Библиотека кодирования                   : libebml v1.3.1 + libmatroska v1.4.2
Attachments                              : ARIALN.TTF / ARIALNB.TTF / Arsenal-Bold.otf / calibrib.ttf / calibriz.ttf

Видео
Идентификатор                            : 1
Формат                                   : AVC
Формат/Информация                        : Advanced Video Codec
Профиль формата                          : High@L4.1
Настройки формата                        : CABAC / 10 Ref Frames
Параметр CABAC формата                   : Да
Параметр RefFrames формата               : 10 кадров
Идентификатор кодека                     : V_MPEG4/ISO/AVC
Продолжительность                        : 2 ч. 19 м.
Битрейт                                  : 1647 Кбит/сек
Ширина                                   : 720 пикселей
Высота                                   : 304 пикселя
Соотношение сторон                       : 2,35:1
Режим частоты кадров                     : Постоянный
Частота кадров                           : 23,976 (24000/1001) кадра/сек
Цветовое пространство                    : YUV
Субдискретизация насыщенности            : 4:2:0
Битовая глубина                          : 8 бит
Тип развёртки                            : Прогрессивная
Бит/(Пиксели*Кадры)                      : 0.314
Размер потока                            : 1,61 Гбайт (78%)
Библиотека кодирования                   : x264 core 148 r2638 7599210
Настройки программы                      : cabac=1 / ref=10 / deblock=1:-2:-1 / analyse=0x3:0x133 / me=umh / subme=10 / psy=1 / psy_rd=1.00:0.00 / mixed_ref=1 / me_range=24 / chroma_me=1 / trellis=2 / 8x8dct=1 / cqm=0 / deadzone=21,11 / fast_pskip=0 / chroma_qp_offset=-2 / threads=6 / lookahead_threads=1 / sliced_threads=0 / nr=0 / decimate=0 / interlaced=0 / bluray_compat=0 / constrained_intra=0 / bframes=10 / b_pyramid=2 / b_adapt=2 / b_bias=0 / direct=3 / weightb=1 / open_gop=1 / weightp=2 / keyint=240 / keyint_min=23 / scenecut=40 / intra_refresh=0 / rc_lookahead=60 / rc=2pass / mbtree=0 / bitrate=1647 / ratetol=1.0 / qcomp=0.70 / qpmin=10 / qpmax=51 / qpstep=4 / cplxblur=20.0 / qblur=0.5 / vbv_maxrate=62500 / vbv_bufsize=78125 / nal_hrd=none / filler=0 / ip_ratio=1.40 / pb_ratio=1.30 / aq=1:1.00
Язык                                     : English
Default                                  : Да
Forced                                   : Нет
Цветовой диапазон                        : Limited
Коэффициенты матрицы                     : BT.709

Аудио #1
Идентификатор                            : 2
Формат                                   : AC-3
Формат/Информация                        : Audio Coding 3
Идентификатор кодека                     : A_AC3
Продолжительность                        : 2 ч. 19 м.
Вид битрейта                             : Постоянный
Битрейт                                  : 224 Кбит/сек
Каналы                                   : 2 канала
Расположение каналов                     : Front: L R
Частота                                  : 48,0 КГц
Частота кадров                           : 31,250 кадров/сек (1536 SPF)
Битовая глубина                          : 16 бит
Метод сжатия                             : С потерями
Размер потока                            : 224 Мбайт (11%)
Заголовок                                : Ворон и Wenlana
Язык                                     : Russian
Default                                  : Да
Forced                                   : Нет

Аудио #2
Идентификатор                            : 3
Формат                                   : AC-3
Формат/Информация                        : Audio Coding 3
Идентификатор кодека                     : A_AC3
Продолжительность                        : 2 ч. 19 м.
Вид битрейта                             : Постоянный
Битрейт                                  : 224 Кбит/сек
Каналы                                   : 2 канала
Расположение каналов                     : Front: L R
Частота                                  : 48,0 КГц
Частота кадров                           : 31,250 кадров/сек (1536 SPF)
Битовая глубина                          : 16 бит
Метод сжатия                             : С потерями
Размер потока                            : 224 Мбайт (11%)
Заголовок                                : Original
Язык                                     : Korean
Default                                  : Нет
Forced                                   : Нет

Текст #1
Идентификатор                            : 4
Формат                                   : ASS
Идентификатор кодека                     : S_TEXT/ASS
Идентификатор кодека/Информация          : Advanced Sub Station Alpha
Продолжительность                        : 2 ч. 11 м.
Битрейт                                  : 3 бит/сек
ElementCount                             : 41
Метод сжатия                             : Без потерь
Размер потока                            : 3,78 Кбайт (0%)
Заголовок                                : форсированный(надписи)
Язык                                     : Russian
Default                                  : Да
Forced                                   : Да

Текст #2
Идентификатор                            : 5
Формат                                   : ASS
Идентификатор кодека                     : S_TEXT/ASS
Идентификатор кодека/Информация          : Advanced Sub Station Alpha
Продолжительность                        : 2 ч. 13 м.
Битрейт                                  : 113 бит/сек
ElementCount                             : 1487
Метод сжатия                             : Без потерь
Размер потока                            : 111 Кбайт (0%)
Заголовок                                : Перевод - [Фансаб-группа Zipper]
Язык                                     : Russian
Default                                  : Нет
Forced                                   : Нет



[+] Пример Субтитров

Dialogue: 0,0:03:24.09,0:03:25.55,Default,,0,0,0,,Нет!
Dialogue: 0,0:03:25.55,0:03:26.96,Default,,0,0,0,,ЧаХон! Нет!
Dialogue: 0,0:03:46.61,0:03:48.15,Default,,0,0,0,,Всё в порядке, мы живы.
Dialogue: 0,0:03:48.21,0:03:49.95,Default,,0,0,0,,Не бойся, малышка.
Dialogue: 0,0:03:49.95,0:03:51.28,Default,,0,0,0,,Мамочка!
Dialogue: 0,0:03:52.24,0:03:53.62,Default,,0,0,0,,Мама!
Dialogue: 0,0:03:55.81,0:03:57.83,Default,,0,0,0,,Сюда! Скорее!
Dialogue: 0,0:04:02.72,0:04:04.09,Default,,0,0,0,,Пронесло.
Dialogue: 0,0:04:04.95,0:04:06.71,Default,,0,0,0,,Ещё бы чуть-чуть - и всё!
Dialogue: 0,0:04:07.37,0:04:09.97,Default,,0,0,0,,Принцесса, как тебя зовут?
Dialogue: 0,0:04:10.37,0:04:11.68,Default,,0,0,0,,Ким ЧаХон.
Dialogue: 0,0:04:11.96,0:04:13.72,Default,,0,0,0,,Да нет, это я ЧаХон.
Dialogue: 0,0:04:13.79,0:04:15.93,Default,,0,0,0,,Откуда только узнали моё имя?
Dialogue: 0,0:04:16.16,0:04:17.77,Default,,0,0,0,,Так как тебя зовут?
Dialogue: 0,0:04:18.48,0:04:19.93,Default,,0,0,0,,Твоё имя...
Dialogue: 0,0:04:20.08,0:04:21.69,Default,,0,0,0,,Ким ЧаХон!
Dialogue: 0,0:04:24.52,0:04:26.15,Default,,0,0,0,,Ким ЧаХон?
Dialogue: 0,0:05:07.36,0:05:08.86,Default,,0,0,0,,Уважаемый!
Dialogue: 0,0:05:08.95,0:05:10.73,Default,,0,0,0,,Ну-ка отойдите оттуда! Это опасно!
Dialogue: 0,0:05:10.73,0:05:14.08,Default,,0,0,0,,Тащи живее носилки! Чего стоишь?!
Dialogue: 0,0:05:14.23,0:05:15.40,Default,,0,0,0,,ЧаХон-хён!
Dialogue: 0,0:05:15.56,0:05:18.08,Default,,0,0,0,,Ким ЧаХон, впечатляет.
Dialogue: 0,0:05:19.03,0:05:22.96,Default,,0,0,0,,И как только ты осмелился сигануть с такой высоты?
Dialogue: 0,0:05:23.00,0:05:26.77,Default,,0,0,0,,Вы разбились, но благородно спасли жизнь девочке...
Dialogue: 0,0:05:27.77,0:05:28.71,Default,,0,0,0,,Парангон!



Скриншоты:
[+] Всего файлов в раздаче - 1:
Along.With.the.Gods.The.Two.Worlds.2017.HDTVRip-AVC.RU.KO.[Batafurai team_&_SOUND-GROUP].mkv2.05 GB

Похожие раздачи по запросу - прогулка:
2019-02-03 U Прогулка по эшафоту (1992) VHSRip | Полная версия 2.05 GB ↑ 88 ↓ 20

Отзывы
Зарегистрируйтесь чтобы добавить комментарий.
Обратная связь
Copyleft ©