↑↓Torrent.by
Поиск
Логин: Регистрация
Пароль: Восстановить пароль
Загрузка...

Экстрасенсы ведут расследование [10х01] (2018) HDTV 1080p от Generalfilm

Скачать ekstrasensy-vedut-rassledovanie-10h01-2018-hdtv-1080p-ot-generalfilm.torrent
U Магнитная ссылка Размер: 3.69 GB Раздают: 161 Качают: 23 Добавлен: 2018-02-18 11:33:31
Экстрасенсы ведут расследование [10х01] (2018)  HDTV 1080p от Generalfilm

Оригинальное название: Экстрасенсы ведут расследование
Год выпуска: 2018
Жанр:  Реалити-шоу
Выпущено: Россия, ТНТ

О фильме: Документальный триллер-детектив с участием самых загадочных экстрасенсов России! Это не шоу, а демонстрация реальной мощи ясновидения. Участники и победители нескольких сезонов «Битвы экстрасенсов» приводят документальные доказательства того, как паранормальные способности способны помочь людям. В этом цикле экстрасенсы находят пропавших родственников и угнанные автомобили, избавляют жилище от привидений и возвращают супругов в семьи. В фильмах создается «эффект присутствия» - зритель выступает очевидцем всех этапов процесса расследования. Комментарии свидетелей – следователей, самих героев событий – подтверждают правдоподобность происходящего на экране. А особенный интерес вызывает то, как люди со сверхвозможностями существуют в своих привычных условиях жизни и работы.

Качество: HDTV (1080p)
Видео:  AVC, 1920x1080 (16:9), 25.000 fps, 7 051 Kbps (0.136 bit/pixel)
Аудио: AC3, 2 ch, 192 Кбит/с
Продолжительность: 1 x ~ 01:13:03
Язык: Русский
Релиз:
[+] ОтчетМедиаИнфо
Общее
Уникальный идентификатор         : 231111946027791290428202869581659072038 (0xADDE8AAF36C6ABB7AD1BF060C1F56626)
Полное имя                       : E:запись с тв Ekstrasensy vedut rassledovanie.2018.HDTV 1080P.RG GeneralFilmEkstrasensy vedut rassledovanie.s10.e01.2018.HDTV 1080p.by.White Smoke.R.G.Generalfilm.mkv
Формат                           : Matroska
Размер файла                     : 3,69 Гбайт
Продолжительность                : 1 ч. 13 м.
Общий поток                      : 7223 Кбит/сек
Название фильма                  : Ekstrasensy vedut rassledovanie.s10.e01.2018.HDTV 1080p.by.White Smoke.R.G.Generalfilm.mkv
Дата кодирования                 : UTC 2018-02-17 20:42:40
Программа кодирования            : mkvmerge v6.8.0 ('Theme for Great Cities') 64bit built on Mar  2 2014 21:34:26
Библиотека кодирования           : libebml v1.3.0 + libmatroska v1.4.1

Видео
Идентификатор                    : 1
Формат                           : AVC
Формат/Информация                : Advanced Video Codec
Профиль формата                  : High@L4.1
Параметр CABAC формата           : Да
Параметр ReFrames формата        : 3 кадры
Параметры GOP формата            : M=3, N=33
Идентификатор кодека             : V_MPEG4/ISO/AVC
Продолжительность                : 1 ч. 13 м.
Вид битрейта                     : Постоянный
Битрейт                          : 7051 Кбит/сек
Ширина                           : 1920 пикс.
Высота                           : 1080 пикс.
Соотношение сторон               : 16:9
Частота кадров                   : 25,000 кадр/сек
Стандарт вещания                 : PAL
Цветовое пространство            : YUV
Подвыборка цветности             : 4:2:0
Битовая глубина                  : 8 бит
Тип развёртки                    : Прогрессивная
Бит/(Пиксели*Кадры)              : 0.136
Размер потока                    : 3,51 Гбайт (95%)
Основные цвета                   : BT.709-5, BT.1361, IEC 61966-2-4, SMPTE RP177
Характеристики трансфера         : BT.709-5, BT.1361
Коэффициенты матрицы             : BT.709-5, BT.1361, IEC 61966-2-4 709, SMPTE RP177

Аудио
Идентификатор                    : 2
Формат                           : AC-3
Формат/Информация                : Audio Coding 3
Расширение режима                : CM (complete main)
Идентификатор кодека             : A_AC3
Продолжительность                : 1 ч. 13 м.
Вид битрейта                     : Постоянный
Битрейт                          : 192 Кбит/сек
Канал(ы)                         : 2 канала(ов)
Расположение каналов             : Front: L R
Частота                          : 48,0 КГц
Битовая глубина                  : 16 бит
Метод сжатия                     : С потерями
Размер потока                    : 100 Мбайт (3%)



Скриншоты:
[+] Всего файлов в раздаче - 1:
Ekstrasensy vedut rassledovanie.s10.e01.2018.HDTV 1080p.by.White Smoke.R.G.Generalfilm.mkv3.69 GB

Текущая раздача:
ДатаКомментарии    РазмерПиры
2018-02-18 U Экстрасенсы ведут расследование [10х01] (2018) HDTV 1080p от Generalfilm 3.69 GB ↑ 161 ↓ 23

Показать еще раздачи по запросу экстрасенсы:
2018-09-10 U Экстрасенсы ведут расследование [11х01-02] (2018) WEBRip 720p от Files-x 1К3.81 GB ↑ 71 ↓ 26
2018-04-01 U Экстрасенсы. Битва сильнейших [10x01-07] (2018) HDTVRip 720p 13.00 GB ↑ 51 ↓ 258
2018-03-26 U Экстрасенсы. Битва сильнейших [10x01-06] (2018) HDTVRip 720p 1К11.23 GB ↑ 52 ↓ 98
2018-03-19 U Экстрасенсы. Битва сильнейших [10x01-05] (2018) HDTVRip 720p 9.40 GB ↑ 43 ↓ 102
2018-03-04 U Экстрасенсы. Битва сильнейших [10x01-03] (2018) HDTVRip 720p 5.49 GB ↑ 175 ↓ 262
2018-02-25 U Экстрасенсы. Битва сильнейших [10x01-02] (2018) HDTVRip 720p 3.66 GB ↑ 117 ↓ 137
2018-02-18 U Экстрасенсы. Битва сильнейших. Выпуск 17.02 (2018) HDTVRip 720p 1.84 GB ↑ 119 ↓ 73

Отзывы
Зарегистрируйтесь чтобы добавить комментарий.
Обратная связь
Copyleft ©