↑↓torrent.by
Поиск
Логин: Регистрация
Пароль: Восстановить пароль

Одержимость / Wicker Park (2004) WEB-DLRip 1080p | D, P2

Скачать oderzhimost-wicker-park-2004-web-dlrip-1080p-d-p2.torrent
U Магнитная ссылка Размер: 7.83 GB Раздают: 486 Качают: 43 Добавлен: 2018-02-18 12:33:55
Одержимость / Wicker Park (2004) WEB-DLRip 1080p | D, P2

Название: Одержимость
Оригинальное название: Wicker Park
Год выхода: 2004
Жанр: триллер, драма, мелодрама, детектив
Режиссер: Пол МакГиган
В ролях: Джош Хартнетт, Роуз Бирн, Мэттью Лиллард, Дайан Крюгер, Кристофер Казинс, Джессика Паре, Власта Врана, Эми Собол, Тед Уиттэлл, Изабель Дос Сантос

О фильме:
Накануне важной деловой поездки молодой преуспевающий финансист Мэтью замечает в ресторане свою бывшую возлюбленную Лизу, которая таинственным образом исчезла два года назад и страстью к которой он все еще одержим. Забыв обо всем, Мэтью ступает на путь обмана и подозрений, чтобы выследить ее.

Пытаясь решить головоломку с помощью загадочных улик, он случайно знакомится с другой девушкой — ее тоже зовут Лиза и, возможно, ей известна тайна странного исчезновения. Мэтью не предполагает, что любовная одержимость уже сделала его жертвой виртуозной интриги…

Страна: США
Студия: Lakeshore Entertainment, Mel's Cite du Cinema, MELS, Metro-Goldwyn-Mayer (MGM)
Продолжительность: 01:54:55
Перевод: Профессиональный (дублированный) R5 + Профессиональный (двухголосый, закадровый) Tycoon Studio + Профессиональный (двухголосый, закадровый) О.Зверева и А.Котов

Файл
Качество: WEB-DLRip 1080p
Формат: Matroska
Видео: 1920x816 at 23.976 fps, x264, ~8300 kbps avg
Аудио#1: Russian: 48 kHz, AC3, 3/2 (L,C,R,l,r) + LFE ch, ~384 kbps avg |Дубляж, R5|
Аудио#2: Russian: 48 kHz, AC3, 3/2 (L,C,R,l,r) + LFE ch, ~448 kbps avg |Двухголосый закадровый, Tycoon Studio|
Аудио#3: Russian: 48 kHz, AC3, 2/0 (L,R) ch, ~192 kbps avg |Двухголосый закадровый, О.Зверева и А.Котов|
Аудио#4: English: 48 kHz, AC3, 3/2 (L,C,R,l,r) + LFE ch, ~448 kbps avg
Субтитры: Russian, English

***Сохранены и подписаны оригинальные главы.
***Релиз - whalekilla.


[+] Знаете ли вы, что...
В финальной сцене фильма играет песня группы Coldplay — «The Scientist».
На роль Мэттью уже был утвержден Пол Уокер. Но он вскоре покинул проект из-за возникнувших осложнений на съемках фильма «Двойной форсаж» (2003). Мэттью мог так же сыграть Фредди Принц мл..
Гораздо раньше планировалось, что главной звездой фильма станет Брендан Фрейзер, а кресло режиссера займет Джоэл Шумахер.
Большая часть съемок прошла в Монреале.
Перевод оригинального названия — «Уикер-парк».
Автомобиль главного героя — Ford Mustang 1968 года.
Фильм является ремейком французского фильма «Квартира» 1996 года.



[+] MediaInfo
Общее
Уникальный идентификатор                 : 218998389539361081367552244118668546071 (0xA4C18E3D05FF447DA418BB25C4859017)
Полное имя                               : Wicker.Park.2004.WEB-DLRip.(1080p).mkv
Формат                                   : Matroska
Версия формата                           : Version 4 / Version 2
Размер файла                             : 7,83 Гбайт
Продолжительность                        : 1 ч. 54 м.
Общий поток                              : 9752 Кбит/сек
Название фильма                          : Wicker Park (2004)
Дата кодирования                         : UTC 2018-02-18 01:14:20
Программа кодирования                    : mkvmerge v6.9.1 ('Blue Panther') 64bit built on Apr 18 2014 18:23:38
Библиотека кодирования                   : libebml v1.3.0 + libmatroska v1.4.1

Видео
Идентификатор                            : 1
Формат                                   : AVC
Формат/Информация                        : Advanced Video Codec
Профиль формата                          : High@L4.1
Параметр CABAC формата                   : Да
Параметр ReFrames формата                : 5 кадров
Идентификатор кодека                     : V_MPEG4/ISO/AVC
Продолжительность                        : 1 ч. 54 м.
Битрейт                                  : 8279 Кбит/сек
Ширина                                   : 1920 пикселей
Высота                                   : 816 пикселей
Соотношение сторон                       : 2,35:1
Режим частоты кадров                     : Постоянный
Частота кадров                           : 23,976 кадра/сек
Цветовое пространство                    : YUV
Субдискретизация насыщенности            : 4:2:0
Битовая глубина                          : 8 бит
Тип развёртки                            : Прогрессивная
Бит/(Пиксели*Кадры)                      : 0.220
Размер потока                            : 6,49 Гбайт (83%)
Заголовок                                : Wicker Park (2004)
Библиотека кодирования                   : x264 core 130 r2273 b3065e6
Настройки программы                      : cabac=1 / ref=5 / deblock=1:-3:-3 / analyse=0x3:0x133 / me=umh / subme=11 / psy=1 / psy_rd=1.00:0.10 / mixed_ref=1 / me_range=32 / chroma_me=1 / trellis=2 / 8x8dct=1 / cqm=0 / deadzone=21,11 / fast_pskip=1 / chroma_qp_offset=-3 / threads=6 / lookahead_threads=1 / sliced_threads=0 / nr=0 / decimate=1 / interlaced=0 / bluray_compat=0 / constrained_intra=0 / bframes=16 / b_pyramid=2 / b_adapt=2 / b_bias=0 / direct=3 / weightb=1 / open_gop=0 / weightp=2 / keyint=250 / keyint_min=23 / scenecut=40 / intra_refresh=0 / rc_lookahead=60 / rc=2pass / mbtree=1 / bitrate=8279 / ratetol=1.0 / qcomp=0.60 / qpmin=0 / qpmax=69 / qpstep=4 / cplxblur=20.0 / qblur=0.5 / ip_ratio=1.40 / aq=1:1.00
Язык                                     : English
Default                                  : Да
Forced                                   : Нет

Аудио #1
Идентификатор                            : 2
Формат                                   : AC-3
Формат/Информация                        : Audio Coding 3
Расширение режима                        : CM (complete main)
Параметр Endianness формата              : Big
Идентификатор кодека                     : A_AC3
Продолжительность                        : 1 ч. 54 м.
Вид битрейта                             : Постоянный
Битрейт                                  : 384 Кбит/сек
Каналы                                   : 6 каналов
Расположение каналов                     : Front: L C R, Side: L R, LFE
Частота                                  : 48,0 КГц
Битовая глубина                          : 16 бит
Метод сжатия                             : С потерями
Размер потока                            : 316 Мбайт (4%)
Заголовок                                : AC3, 6 ch, 384 Kbps, Dub
Язык                                     : Russian
Default                                  : Да
Forced                                   : Нет

Аудио #2
Идентификатор                            : 3
Формат                                   : AC-3
Формат/Информация                        : Audio Coding 3
Расширение режима                        : CM (complete main)
Параметр Endianness формата              : Big
Идентификатор кодека                     : A_AC3
Продолжительность                        : 1 ч. 54 м.
Вид битрейта                             : Постоянный
Битрейт                                  : 448 Кбит/сек
Каналы                                   : 6 каналов
Расположение каналов                     : Front: L C R, Side: L R, LFE
Частота                                  : 48,0 КГц
Битовая глубина                          : 16 бит
Метод сжатия                             : С потерями
Размер потока                            : 368 Мбайт (5%)
Заголовок                                : AC3, 6 ch, 448 Kbps, DVO, 'Tycoon Studio'
Язык                                     : Russian
Default                                  : Нет
Forced                                   : Нет

Аудио #3
Идентификатор                            : 4
Формат                                   : AC-3
Формат/Информация                        : Audio Coding 3
Расширение режима                        : CM (complete main)
Параметр Endianness формата              : Big
Идентификатор кодека                     : A_AC3
Продолжительность                        : 1 ч. 54 м.
Вид битрейта                             : Постоянный
Битрейт                                  : 192 Кбит/сек
Каналы                                   : 2 канала
Расположение каналов                     : Front: L R
Частота                                  : 48,0 КГц
Битовая глубина                          : 16 бит
Метод сжатия                             : С потерями
Размер потока                            : 158 Мбайт (2%)
Заголовок                                : АС3, 2 ch, 192 Kbps, DVO
Язык                                     : Russian
Default                                  : Нет
Forced                                   : Нет

Аудио #4
Идентификатор                            : 5
Формат                                   : AC-3
Формат/Информация                        : Audio Coding 3
Расширение режима                        : CM (complete main)
Параметр Endianness формата              : Big
Идентификатор кодека                     : A_AC3
Продолжительность                        : 1 ч. 54 м.
Вид битрейта                             : Постоянный
Битрейт                                  : 448 Кбит/сек
Каналы                                   : 6 каналов
Расположение каналов                     : Front: L C R, Side: L R, LFE
Частота                                  : 48,0 КГц
Битовая глубина                          : 16 бит
Метод сжатия                             : С потерями
Размер потока                            : 368 Мбайт (5%)
Заголовок                                : AC3, 6 ch, 448 Kbps, Original
Язык                                     : English
Default                                  : Нет
Forced                                   : Нет

Текст #1
Идентификатор                            : 6
Формат                                   : UTF-8
Идентификатор кодека                     : S_TEXT/UTF8
Идентификатор кодека/Информация          : UTF-8 Plain Text
Язык                                     : Russian
Default                                  : Нет
Forced                                   : Нет

Текст #2
Идентификатор                            : 7
Формат                                   : UTF-8
Идентификатор кодека                     : S_TEXT/UTF8
Идентификатор кодека/Информация          : UTF-8 Plain Text
Язык                                     : English
Default                                  : Нет
Forced                                   : Нет

Текст #3
Идентификатор                            : 8
Формат                                   : UTF-8
Идентификатор кодека                     : S_TEXT/UTF8
Идентификатор кодека/Информация          : UTF-8 Plain Text
Язык                                     : French
Default                                  : Нет
Forced                                   : Нет

Текст #4
Идентификатор                            : 9
Формат                                   : UTF-8
Идентификатор кодека                     : S_TEXT/UTF8
Идентификатор кодека/Информация          : UTF-8 Plain Text
Язык                                     : Spanish
Default                                  : Нет
Forced                                   : Нет

Текст #5
Идентификатор                            : 10
Формат                                   : UTF-8
Идентификатор кодека                     : S_TEXT/UTF8
Идентификатор кодека/Информация          : UTF-8 Plain Text
Язык                                     : Portuguese
Default                                  : Нет
Forced                                   : Нет

Текст #6
Идентификатор                            : 11
Формат                                   : UTF-8
Идентификатор кодека                     : S_TEXT/UTF8
Идентификатор кодека/Информация          : UTF-8 Plain Text
Язык                                     : Dutch
Default                                  : Нет
Forced                                   : Нет

Текст #7
Идентификатор                            : 12
Формат                                   : UTF-8
Идентификатор кодека                     : S_TEXT/UTF8
Идентификатор кодека/Информация          : UTF-8 Plain Text
Язык                                     : Finnish
Default                                  : Нет
Forced                                   : Нет

Текст #8
Идентификатор                            : 13
Формат                                   : UTF-8
Идентификатор кодека                     : S_TEXT/UTF8
Идентификатор кодека/Информация          : UTF-8 Plain Text
Язык                                     : Hebrew
Default                                  : Нет
Forced                                   : Нет

Меню
00:00:05.943                             : en:Main Title/Up-and-Comer
00:05:48.276                             : en:"Lisa!"
00:07:53.395                             : en:The Girl on Camera
00:11:40.318                             : en:Shanghai Via the Drake
00:15:44.079                             : en:8 1/2, Like Fellini
00:20:52.651                             : en:Ordinary Beautiful
00:26:03.819                             : en:A Belief in Destiny
00:29:19.067                             : en:Key to an Empty Place
00:33:03.396                             : en:"Fix It!"
00:38:28.939                             : en:The Wrong Lisa
00:45:02.621                             : en:Nice Guy Staying Over
00:48:45.035                             : en:The Last Rendezvous
00:52:33.624                             : en:The Morning After
00:57:19.030                             : en:A Neighborly Gesture
01:02:01.882                             : en:Hot and/or Creepy
01:06:43.163                             : en:It Started with a Defect
01:13:27.113                             : en:A Little Friendly Support
01:16:36.044                             : en:Stage Fright
01:21:12.068                             : en:A Girlfriend in Need
01:25:54.993                             : en:Phone Tag
01:34:15.826                             : en:If the Shoe Won't Fit...
01:36:20.744                             : en:At Last, They Meet
01:45:00.429                             : en:Airport Lost and Found
01:50:18.257                             : en:End Credits



Скриншоты:
[+] Всего файлов в раздаче - 1:
Wicker.Park.2004.WEB-DLRip.(1080p).mkv7.83 GB

Отзывы
shiller777
Очень крутая драма! Можно смотреть вдвоем Тут все такие молодые и красивые

Зарегистрируйтесь чтобы добавить комментарий.
Обратная связь
Copyleft ©