↑↓Torrent.by
Поиск
Логин: Регистрация
Пароль: Восстановить пароль
Загрузка...

Nat Geo Wild: Короли ящериц / Lizard Kings (2009) HDTV 1080i | D

Скачать nat-geo-wild-koroli-yascheric-lizard-kings-2009-hdtv-1080i-d.torrent
U Магнитная ссылка Размер: 1.88 GB Раздают: 134 Качают: 12 Добавлен: 2018-02-18 14:06:29
Nat Geo Wild: Короли ящериц / Lizard Kings (2009) HDTV 1080i | D

Название: Короли ящериц
Оригинальное: Lizard Kings
Год выхода: 2009
Жанр: Документальный
Режиссер: Гизела Кауфманн

О фильме:
От трехметрового комодского варана до карликового варана длиной в 20 см, эти ящерицы - не типичные рептилии. Откройте тайны этих животных. Вараны отличаются от всех остальных ящериц. Они свирепы, сильны и очень умны. Некоторые из них гиганты другие пигмеи, но столь разными этим древних хищников делает именно их характер. Вараны ящерицы понимающие свой статус, они знают что находятся на вершине пищевой цепочки и ведут себя как высшие хищники, они ничего не боятся.  Сейчас ученые подвергают испытаниям эту неожиданную смекалку и узнают, что вараны очень любознательны и даже умеют считать. И впервые установленные на животных миниатюрные камеры запечатлевают кадры их скрытной жизни. Всё говорит о том, что вараны бесспорные короли мира ящериц.

Страна: Австралия
Продолжительность: 00:46:28
Перевод: Профессиональный (одноголосый закадровый)

Файл
Кодек: MPEG-TS
Качество: HDTV 1080i
Видео: 1920x1080, 5302 Кбит/с, 25 кадр/с
Звук: M4A, 2 канала, 192 Кбит/с
[+] MI
Общее
Идентификатор                            : 6 (0x6)
Полное имя                               : D:Король ящериц.ts
Формат                                   : MPEG-TS
Размер файла                             : 1,88 Гбайт
Продолжительность                        : 46 м. 28 с.
Режим общего битрейта                    : Переменный
Общий поток                              : 5781 Кбит/сек

Видео
Идентификатор                            : 1500 (0x5DC)
Идентификатор меню                       : 50 (0x32)
Формат                                   : AVC
Формат/Информация                        : Advanced Video Codec
Профиль формата                          : Main@L4
Настройки формата                        : CABAC / 4 Ref Frames
Параметр CABAC формата                   : Да
Параметр RefFrames формата               : 4 кадра
Параметр GOP формата                     : M=4, N=32
Идентификатор кодека                     : 27
Продолжительность                        : 46 м. 28 с.
Битрейт                                  : 5302 Кбит/сек
Ширина                                   : 1920 пикселей
Высота                                   : 1080 пикселей
Соотношение сторон                       : 16:9
Частота кадров                           : 25,000 кадров/сек
Стандарт вещания                         : Component
Цветовое пространство                    : YUV
Субдискретизация насыщенности            : 4:2:0
Битовая глубина                          : 8 бит
Тип развёртки                            : Чересстрочная
Метод сохранения типа развёртки          : Раздельные поля
Порядок развёртки                        : Верхнее поле первое
Бит/(Пиксели*Кадры)                      : 0.102
Размер потока                            : 1,72 Гбайт (92%)
Цветовой диапазон                        : Limited
Основные цвета                           : BT.709
Характеристики трансфера                 : BT.709
Коэффициенты матрицы                     : BT.709

Аудио
Идентификатор                            : 1510 (0x5E6)
Идентификатор меню                       : 50 (0x32)
Формат                                   : MPEG Audio
Версия формата                           : Version 1
Профиль формата                          : Layer 2
Идентификатор кодека                     : 4
Продолжительность                        : 46 м. 28 с.
Вид битрейта                             : Постоянный
Битрейт                                  : 192 Кбит/сек
Каналы                                   : 2 канала
Частота                                  : 48,0 КГц
Частота кадров                           : 41,667 кадра/сек (1152 SPF)
Метод сжатия                             : С потерями
Задержка видео                           : 52 мс.
Размер потока                            : 63,8 Мбайт (3%)
Язык                                     : Russian



Скриншоты:
[+] Всего файлов в раздаче - 1:
Король ящериц.ts1.88 GB

Текущая раздача:
ДатаКомментарии    РазмерПиры
2018-02-18 U Nat Geo Wild: Короли ящериц / Lizard Kings (2009) HDTV 1080i | D 1.88 GB ↑ 134 ↓ 12

Показать еще раздачи по запросу wild:
2018-04-16 U TheHunter: Call of the Wild [v 1.19 + DLCs] (2017) PC | RePack от FitGirl 6.73 GB ↑ 32 ↓ 69
2018-04-13 U TheHunter: Call of the Wild [v 1.19 + DLCs] (2017) PC | RePack от xatab 7.90 GB ↑ 54 ↓ 23
2018-03-26 U TheHunter: Call of the Wild [v 1.18 + DLCs] (2017) PC | RePack от xatab 7.90 GB ↑ 83 ↓ 58
2018-03-24 U TheHunter: Call of the Wild [v 1.18 + DLCs] (2017) PC | RePack от qoob 7.89 GB ↑ 44 ↓ 34
2018-03-07 U TheHunter: Call of the Wild (2017) [RUS|ENG] PC | RePack от xatab 7.88 GB ↑ 6 ↓ 2
2018-03-04 U TheHunter: Call of the Wild [v 1.17 + DLCs] (2017) PC | RePack от xatab 7.88 GB ↑ 70 ↓ 36
2018-02-16 U Ведьмак 3: Дикая Охота / The Witcher 3: Wild Hunt + HD Reworked Project [v 1.31 + 18 DLC] (2015) PC | RePack от xatab 31.20 GB ↑ 248 ↓ 257

Отзывы
Зарегистрируйтесь чтобы добавить комментарий.
Обратная связь
Copyleft ©