↑↓Torrent.by
Поиск
Логин: Регистрация
Пароль: Восстановить пароль
Загрузка...

Карп отмороженный (2017) WEB-DL 720p | iTunes

Скачать karp-otmorozhennyy-2017-web-dl-720p-itunes.torrent
U Магнитная ссылка Размер: 3.06 GB Раздают: 2116 Качают: 1152 Добавлен: 2018-02-19 18:03:45
Карп отмороженный (2017) WEB-DL 720p | iTunes

Название: Карп отмороженный
Год выхода: 2017
Жанр: Комедия, драма
Страна: Россия
Студия: ООО "КиноКластер"
Перевод: Не требуется
Продолжительность: 01:39:33
Режиссер: Владимир Котт
В ролях: Марина Неёлова, Алиса Фрейндлих, Евгений Миронов, Сергей Пускепалис, Александр Баширов, Наталья Суркова, Татьяна Рассказова, Антон Шпиньков, Артем Лещик, Анна Екатерининская и др.

О фильме: Елена Михайловна скромно живёт на пенсии в провинциальном городке. Неожиданно для себя она узнаёт о смертельном диагнозе, который может в любой момент оборвать её жизнь. Чтобы лишний раз не тревожить любимого, но постоянно занятого сына, работающего в большом городе бизнес-тренером, и избавить его от потенциальных забот, Елена Михайловна берет дело в свои руки и принимается активно хлопотать над организацией собственных похорон, при участии близких подруг и других обитателей родного городка.

Файл
Качество: WEB-DL 720p
Видео: MPEG-4 AVC, 1280x690 (1,85:1), 4010 kbps, 23,976 fps
Звук: Русский: AC3, 6 ch, 48 kHz, 384 kbps
[+] MI
Общее
Уникальный идентификатор                 : 202842756669821534357709285030247737272 (0x989A180A4E27B7809FED04C98D9F27B8)
Полное имя                               : H:Deluge торрентыКарп отмороженный (HD).mkv
Формат                                   : Matroska
Версия формата                           : Version 4 / Version 2
Размер файла                             : 3,06 Гбайт
Продолжительность                        : 1 ч. 39 м.
Общий поток                              : 4396 Кбит/сек
Дата кодирования                         : UTC 2018-02-19 11:04:28
Программа кодирования                    : mkvmerge v9.5.0 ('Quiet Fire') 64bit
Библиотека кодирования                   : libebml v1.3.4 + libmatroska v1.4.5

Видео
Идентификатор                            : 1
Формат                                   : AVC
Формат/Информация                        : Advanced Video Codec
Профиль формата                          : High@L3.1
Настройки формата                        : 2 Ref Frames
Параметр CABAC формата                   : Нет
Параметр RefFrames формата               : 2 кадра
Идентификатор кодека                     : V_MPEG4/ISO/AVC
Продолжительность                        : 1 ч. 39 м.
Битрейт                                  : 4010 Кбит/сек
Ширина                                   : 1280 пикселей
Высота                                   : 690 пикселей
Соотношение сторон                       : 1,85:1
Режим частоты кадров                     : Постоянный
Частота кадров                           : 23,976 кадра/сек
Цветовое пространство                    : YUV
Субдискретизация насыщенности            : 4:2:0
Битовая глубина                          : 8 бит
Тип развёртки                            : Прогрессивная
Бит/(Пиксели*Кадры)                      : 0.189
Размер потока                            : 2,79 Гбайт (91%)
Язык                                     : English
Default                                  : Да
Forced                                   : Нет
Цветовой диапазон                        : Limited
Основные цвета                           : BT.709
Характеристики трансфера                 : BT.709
Коэффициенты матрицы                     : BT.709

Аудио
Идентификатор                            : 2
Формат                                   : AC-3
Формат/Информация                        : Audio Coding 3
Идентификатор кодека                     : A_AC3
Продолжительность                        : 1 ч. 39 м.
Вид битрейта                             : Постоянный
Битрейт                                  : 384 Кбит/сек
Каналы                                   : 6 каналов
Расположение каналов                     : Front: L C R, Side: L R, LFE
Частота                                  : 48,0 КГц
Частота кадров                           : 31,250 кадров/сек (1536 SPF)
Битовая глубина                          : 16 бит
Метод сжатия                             : С потерями
Размер потока                            : 273 Мбайт (9%)
Язык                                     : Russian
Default                                  : Да
Forced                                   : Нет

Меню
00:00:00.000                             : en:1
00:03:20.000                             : en:2
00:12:00.000                             : en:3
00:21:49.000                             : en:4
00:34:03.000                             : en:5
00:44:50.000                             : en:6
00:54:50.000                             : en:7
00:59:15.000                             : en:8
01:12:38.000                             : en:9
01:21:43.000                             : en:10
01:37:02.000                             : en:11




Скриншоты:
[+] Всего файлов в раздаче - 1:
Карп отмороженный (HD).mkv3.06 GB

Текущая раздача:
ДатаКомментарии    РазмерПиры
2018-02-19 U Карп отмороженный (2017) WEB-DL 720p | iTunes 3.06 GB ↑ 2116 ↓ 1152

Показать еще раздачи по запросу карп:
2018-03-25 U Карп отмороженный (2017) BDRip от ExKinoRay | Лицензия 1.46 GB ↑ 129 ↓ 38
2018-03-22 U Карп отмороженный (2017) BDRip от MegaPeer | Лицензия 1К1.46 GB ↑ 107 ↓ 29
2018-03-18 U Карп отмороженный (2017) HDRip от Scarabey | Лицензия 1.45 GB ↑ 93 ↓ 25
2018-03-14 U Карп отмороженный (2017) HDRip от MegaPeer | Лицензия 746.92 MB ↑ 50 ↓ 15
2018-03-14 U Карп отмороженный (2017) BDRip 720p | Лицензия 5.69 GB ↑ 90 ↓ 35
2018-03-14 U Карп отмороженный (2017) BDRip 1080p | Лицензия 9.17 GB ↑ 81 ↓ 42
2018-03-14 U Карп отмороженный (2017) HDRip | Лицензия 1.46 GB ↑ 91 ↓ 69

Отзывы
Зарегистрируйтесь чтобы добавить комментарий.
Обратная связь
Copyleft ©