↑↓Torrent.by
Поиск
Логин: Регистрация
Пароль: Восстановить пароль
Загрузка...

Карп отмороженный (2017) WEB-DL 1080p | iTunes

Скачать karp-otmorozhennyy-2017-web-dl-1080p-itunes.torrent
U Магнитная ссылка Размер: 3.84 GB Раздают: 913 Качают: 298 Добавлен: 2018-02-19 21:28:14
Карп отмороженный (2017) WEB-DL 1080p | iTunes

Название: Карп отмороженный
Год выхода: 2017
Жанр: комедия, драма
Режиссер: Владимир Котт
В ролях: Марина Неёлова, Алиса Фрейндлих, Евгений Миронов, Сергей Пускепалис, Александр Баширов, Наталья Суркова, Татьяна Рассказова, Антон Шпиньков, Артем Лещик, Анна Екатерининская

О фильме:
Елена Михайловна скромно живёт на пенсии в провинциальном городке. Неожиданно для себя она узнаёт о смертельном диагнозе, который может в любой момент оборвать её жизнь. Чтобы лишний раз не тревожить любимого, но постоянно занятого сына, работающего в большом городе бизнес-тренером, и избавить его от потенциальных забот, Елена Михайловна берет дело в свои руки и принимается активно хлопотать над организацией собственных похорон.

Страна: Россия
Продолжительность: 01:39:34

Файл
Формат: MKV
Видео: 1912x1032 at 23.976 fps, MPEG-4 AVC, ~5137 kbps avg
Аудио#1: Russian: 48 kHz, AC3, 3/2 (L,C,R,l,r) + LFE ch, ~384.00 kbps avg
Cубтитры: нет


[+] MediaInfo
General
Unique ID                      : 252765987692714785211189505280172008563 (0xBE28F55DC406DED4ADB6CE0BE5C2A473)
Complete name                  : Karp.otmorozhennyj.2017.1080p.WEB-DL.Rus.mkv
Format                         : Matroska
Format version                 : Version 2
File size                      : 3.84 GiB
Duration                       : 1 h 39 min
Overall bit rate               : 5 522 kb/s
Encoded date                   : UTC 2018-02-18 21:44:45
Writing application            : mkvmerge v8.3.0 ('Over the Horizon') 64bit
Writing library                : libebml v1.3.1 + libmatroska v1.4.2

Video
ID                             : 1
Format                         : AVC
Format/Info                    : Advanced Video Codec
Format profile                 : High@L4
Format settings, CABAC         : Yes
Format settings, RefFrames     : 4 frames
Codec ID                       : V_MPEG4/ISO/AVC
Duration                       : 1 h 39 min
Bit rate                       : 5 137 kb/s
Width                          : 1 912 pixels
Height                         : 1 032 pixels
Display aspect ratio           : 1.85:1
Frame rate mode                : Constant
Frame rate                     : 23.976 (24000/1001) FPS
Color space                    : YUV
Chroma subsampling             : 4:2:0
Bit depth                      : 8 bits
Scan type                      : Progressive
Bits/(Pixel*Frame)             : 0.109
Stream size                    : 3.57 GiB (93%)
Language                       : English
Default                        : Yes
Forced                         : No
Color range                    : Limited
Color primaries                : BT.709
Transfer characteristics       : BT.709
Matrix coefficients            : BT.709

Audio
ID                             : 2
Format                         : AC-3
Format/Info                    : Audio Coding 3
Format settings, Endianness    : Big
Codec ID                       : A_AC3
Duration                       : 1 h 39 min
Bit rate mode                  : Constant
Bit rate                       : 384 kb/s
Channel(s)                     : 6 channels
Channel positions              : Front: L C R, Side: L R, LFE
Sampling rate                  : 48.0 kHz
Frame rate                     : 31.250 FPS (1536 SPF)
Bit depth                      : 16 bits
Compression mode               : Lossy
Stream size                    : 273 MiB (7%)
Language                       : Russian
Service kind                   : Complete Main
Default                        : Yes
Forced                         : No

Menu
00:00:00.000                   : en:1
00:03:20.000                   : en:2
00:12:00.000                   : en:3
00:21:49.000                   : en:4
00:34:03.000                   : en:5
00:44:50.000                   : en:6
00:54:50.000                   : en:7
00:59:15.000                   : en:8
01:12:38.000                   : en:9
01:21:43.000                   : en:10
01:37:02.000                   : en:11



Скриншоты:
[+] Всего файлов в раздаче - 1:
Karp.otmorozhennyj.2017.1080p.WEB-DL.Rus.mkv3.84 GB

Текущая раздача:
ДатаКомментарии    РазмерПиры
2018-02-19 U Карп отмороженный (2017) WEB-DL 1080p | iTunes 1 К 3.84 GB ↑ 913 ↓ 298

Показать еще раздачи по запросу карп:
2018-03-25 U Карп отмороженный (2017) BDRip от ExKinoRay | Лицензия 1.46 GB ↑ 129 ↓ 38
2018-03-22 U Карп отмороженный (2017) BDRip от MegaPeer | Лицензия 1К1.46 GB ↑ 107 ↓ 29
2018-03-18 U Карп отмороженный (2017) HDRip от Scarabey | Лицензия 1.45 GB ↑ 93 ↓ 25
2018-03-14 U Карп отмороженный (2017) HDRip от MegaPeer | Лицензия 746.92 MB ↑ 50 ↓ 15
2018-03-14 U Карп отмороженный (2017) BDRip 720p | Лицензия 5.69 GB ↑ 90 ↓ 35
2018-03-14 U Карп отмороженный (2017) BDRip 1080p | Лицензия 9.17 GB ↑ 81 ↓ 42
2018-03-14 U Карп отмороженный (2017) HDRip | Лицензия 1.46 GB ↑ 91 ↓ 69

Отзывы
пень
дебильное название. даже описание читать не буду)

Зарегистрируйтесь чтобы добавить комментарий.
Обратная связь
Copyleft ©