↑↓Torrent.by
Поиск
Логин: Регистрация
Пароль: Восстановить пароль
Загрузка...

Раздолбай (2011) HDTVRip

Скачать razdolbay-2011-hdtvrip.torrent
U Магнитная ссылка Размер: 1.46 GB Раздают: 223 Качают: 70 Добавлен: 2018-02-20 11:52:27
Раздолбай (2011) HDTVRip

Раздолбай

Страна: Россия
Производство: Арго Фильм
Год выпуска: 2011
Жанр:  боевик, комедия
Продолжительность: 01:20:46

Режиссер: Валерий Ибрагимов
Автор сценария: Георгий Гашокин

В ролях: Николай Кудряшов, Юлия Куваева, Олег Сидоров, Филипп Величко, Евгений Савчук, Валерий Ибрагимов, Пётр Капица, Николай Калмыков

Описание: Она владелица собственного бизнеса, амбициозна, самодостаточна и не замужем. Её компания участвует в тендере за лакомый кусок земли. Столкнувшись с конкурентами, она ищет себе надёжную охрану. Он водитель и охранник, хороший парень, но ему нельзя доверить никаких поручений, потому что главный герой… раздолбай. В разгар перепетий когда угрожает опасность именно он приходит ей на помощь...

Перевод: не требуется (оригинал)
Субтитры: нет

Качество: HDTVRip | исходник Раздолбай.2011.HDTV.1080i-ylnian
Формат: AVI
Видео кодек: XviD
Аудио кодек: АС3
Видео: 720x400 (16:9), 25.000 fps, XviD build 67 ~2 130 kbps avg
Аудио: 48.0 kHz, AC3 Dolby Digital, 3/2 (L,C,R,l,r) + LFE ch, ~448 kbps

Дата премьеры (РФ): 10 августа 2011

Релиз от: ylnian / запись источника HDTV 1080i с канала Наш Детектив HD


[+] Media Info
General
Полное имя                               : Раздолбай.2011.HDTVRip-ylnian.avi
Формат                                   : AVI
Формат/Информация                        : Audio Video Interleave
Размер файла                             : 1,46 Гбайт
Продолжительность                        : 1 ч. 20 м.
Общий поток                              : 2588 Кбит/сек
Программа кодирования                    : VirtualDubMod 1.5.10.2 (build 2540/release)
Библиотека кодирования                   : VirtualDubMod build 2540/release

Видео
Идентификатор                            : 0
Формат                                   : MPEG-4 Visual
Профиль формата                          : Advanced Simple@L5
Настройки формата                        : BVOP1
Параметр BVOP формата                    : 1
Параметр QPel формата                    : Нет
Параметр GMC формата                     : Без точки перехода
Параметр матрицы формата                 : Default (MPEG)
Идентификатор кодека                     : XVID
Идентификатор кодека/Подсказка           : XviD
Продолжительность                        : 1 ч. 20 м.
Битрейт                                  : 2130 Кбит/сек
Ширина                                   : 720 пикселей
Высота                                   : 400 пикселей
Соотношение сторон                       : 16:9
Частота кадров                           : 25,000 кадров/сек
Цветовое пространство                    : YUV
Субдискретизация насыщенности            : 4:2:0
Битовая глубина                          : 8 бит
Тип развёртки                            : Прогрессивная
Метод сжатия                             : С потерями
Бит/(Пиксели*Кадры)                      : 0.296
Размер потока                            : 1,20 Гбайт (82%)
Библиотека кодирования                   : XviD 67

Аудио
Идентификатор                            : 1
Формат                                   : AC-3
Формат/Информация                        : Audio Coding 3
Идентификатор кодека                     : 2000
Продолжительность                        : 1 ч. 20 м.
Вид битрейта                             : Постоянный
Битрейт                                  : 448 Кбит/сек
Каналы                                   : 6 каналов
Расположение каналов                     : Front: L C R, Side: L R, LFE
Частота                                  : 48,0 КГц
Частота кадров                           : 31,250 кадров/сек (1536 SPF)
Битовая глубина                          : 16 бит
Метод сжатия                             : С потерями
Размер потока                            : 259 Мбайт (17%)
Выравнивание                             : Разделение по промежуткам
Продолжительность промежутка             : 40  мс. (1,00 видеокадр)
Время предзагрузки промежутка            : 500  мс.



Скриншоты:
[+] Всего файлов в раздаче - 1:
Раздолбай.2011.HDTVRip-ylnian.avi1.46 GB

Текущая раздача:
ДатаКомментарии    РазмерПиры
2018-02-20 U Раздолбай (2011) HDTVRip 1 К 1.46 GB ↑ 223 ↓ 70

Похожие раздачи по запросу - раздолбай:
2018-02-21 U Раздолбай (2011) HDTV 1080i 4.52 GB ↑ 93 ↓ 20

Отзывы
Salaveiserg1992
В жизни так бываееет, что долбай приходтит вновь...)))

Зарегистрируйтесь чтобы добавить комментарий.
Обратная связь
Copyleft ©