↑↓Torrent.by
Поиск
Логин: Регистрация
Пароль: Восстановить пароль
Загрузка...

Тайна Коко / Coco (2017) BDRip-HEVC 1080p от HEVC CLUB | iTunes

Скачать tayna-koko-coco-2017-bdrip-hevc-1080p-ot-club-itunes.torrent
U Магнитная ссылка Размер: 4.04 GB Раздают: 358 Качают: 26 Добавлен: 2018-02-20 11:53:16
Тайна Коко / Coco (2017) BDRip-HEVC 1080p от HEVC CLUB | iTunes

Название: Тайна Коко
Оригинальное название: Coco

Год выпуска: 2017
Страна: США
Жанр:  Мультфильм, мюзикл, фэнтези, комедия, детектив, приключения, семейный
Продолжительность: 01:45:02
Перевод: Дублированный [iTunes]
Субтитры: Русские (forced, full), английские

В ролях: Энтони Гонсалес, Гаэль Гарсиа Берналь, Бенджамин Брэтт, Аланна Юбак, Рене Виктор, Хайме Камиль, Альфонсо Арау, Херберт Сигенса, Габриэль Иглесиас, Ломбардо Бойяр
Режиссёр: Ли Анкрич, Эдриан Молина

Описание: 12-летний Мигель живёт в мексиканской деревушке в семье сапожников и тайно мечтает стать музыкантом. Тайно — потому что в его семейном клане музыка считается проклятием. Когда-то его прапрадед оставил свою жену, прапрабабку Мигеля, ради мечты, которая теперь не даёт спокойно жить Мигелю. С тех пор музыкальная тема в семье стала табу. Мигель обнаруживает, что между ним и его любимым певцом Эрнесто де ла Крусом, ныне покойным, существует некая — пока неназванная — связь. Паренёк отправляется к своему кумиру в Страну Мёртвых, где встречает души своих предков. Мигель знакомится там с духом-трикстером по имени Гектор (в облике скелета), который становится его проводником. Вдвоём они отправляются на поиски де ла Круса.

Качество: BDRip-HEVC 1080p
Формат: MKV
Видео кодек: x265@10bit
Аудио кодек: AC3, DTS
Видео: 1920x804, 23.976 fps, HEVC, ~4359 kbps, 10bit
Аудио: Rus, 48 kHz/16-bit, AC3 5.1, ~384 kbps | Дубляж
Аудио: Eng, 48 kHz/24-bit, DTS 5.1, ~756 kbps | Оригинал
Навигация по главам: Присутствует

Автор рипа: Alex_A

Семпл


[+] Внимание!
- H.265/HEVC (High Efficiency Video Coding) - это новый стандарт кодирования видео.
- Стандарт H.265/HEVC является логическим продолжением стандарта H.264/AVC (Advanced Video Coding), и характеризуется более эффективными алгоритмами сжатия, а также поддержкой высокого разрешения вплоть до 8K UHD (8192x4320). Первая версия стандарта H.265 была опубликована в начале 2013 года.
- Рипы в фомате HEVC поддерживается не всеми аппаратными проигрывателями.
- Для корректного воспроизведения может потребоваться обновление ПО.
- Владельцам несовместимого железа просьба не беспокоить, есть альтернативные релизы.



[+] Медиаинфо
General
Unique ID                                : 116136271501381637801451888317869395299 (0x575F08443FC9981D69CCBBE601C50D63)
Complete name                            : d:HEVCCoco (2017)Coco.2017.1080p.iTunes_HEVCCLUB.mkv
Format                                   : Matroska
Format version                           : Version 4 / Version 2
File size                                : 4.04 GiB
Duration                                 : 1 h 45 min
Overall bit rate                         : 5 503 kb/s
Movie name                               : Coco (2017) - HEVC CLUB
Encoded date                             : UTC 2018-02-17 11:03:10
Writing application                      : mkvmerge v20.0.0 ('I Am The Sun') 64-bit
Writing library                          : libebml v1.3.5 + libmatroska v1.4.8
Cover                                    : Yes
Attachments                              : Cover.jpg

Video
ID                                       : 1
Format                                   : HEVC
Format/Info                              : High Efficiency Video Coding
Format profile                           : Main 10@L4.1@High
Codec ID                                 : V_MPEGH/ISO/HEVC
Duration                                 : 1 h 45 min
Bit rate                                 : 4 359 kb/s
Width                                    : 1 920 pixels
Height                                   : 804 pixels
Display aspect ratio                     : 2.40:1
Frame rate mode                          : Constant
Frame rate                               : 23.976 (24000/1001) FPS
Color space                              : YUV
Chroma subsampling                       : 4:2:0
Bit depth                                : 10 bits
Bits/(Pixel*Frame)                       : 0.118
Stream size                              : 3.20 GiB (79%)
Title                                    : HEVC CLUB
Writing library                          : x265 2.6+22-ff02513b92c0:[Windows][GCC 7.2.0][64 bit] 10bit
Encoding settings                        : cpuid=1173503 / frame-threads=3 / numa-pools=8 / wpp / pmode / no-pme / no-psnr / ssim / log-level=2 / input-csp=1 / input-res=1920x804 / interlace=0 / total-frames=0 / level-idc=41 / high-tier=1 / uhd-bd=0 / ref=6 / no-allow-non-conformance / repeat-headers / annexb / no-aud / no-hrd / info / hash=0 / no-temporal-layers / open-gop / min-keyint=23 / keyint=250 / gop-lookahead=0 / bframes=10 / b-adapt=2 / b-pyramid / bframe-bias=0 / rc-lookahead=60 / lookahead-slices=1 / scenecut=40 / radl=0 / no-intra-refresh / ctu=64 / min-cu-size=8 / no-rect / no-amp / max-tu-size=32 / tu-inter-depth=3 / tu-intra-depth=3 / limit-tu=0 / rdoq-level=1 / dynamic-rd=2.00 / no-ssim-rd / signhide / no-tskip / nr-intra=0 / nr-inter=0 / no-constrained-intra / no-strong-intra-smoothing / max-merge=2 / limit-refs=0 / no-limit-modes / me=1 / subme=7 / merange=64 / temporal-mvp / weightp / weightb / no-analyze-src-pics / deblock=-3:-3 / no-sao / no-sao-non-deblock / rd=4 / no-early-skip / no-rskip / no-fast-intra / no-tskip-fast / no-cu-lossless / no-b-intra / no-splitrd-skip / rdpenalty=0 / psy-rd=1.75 / psy-rdoq=2.50 / no-rd-refine / no-lossless / cbqpoffs=0 / crqpoffs=0 / rc=crf / crf=22.0 / qcomp=0.80 / qpstep=6 / stats-write=0 / stats-read=0 / vbv-maxrate=50000 / vbv-bufsize=50000 / vbv-init=0.9 / crf-max=0.0 / crf-min=0.0 / ipratio=1.50 / pbratio=1.00 / aq-mode=1 / aq-strength=0.20 / no-cutree / zone-count=0 / no-strict-cbr / qg-size=32 / no-rc-grain / qpmax=69 / qpmin=0 / no-const-vbv / sar=1 / overscan=0 / videoformat=5 / range=0 / colorprim=2 / transfer=2 / colormatrix=2 / chromaloc=0 / display-window=0 / max-cll=0,0 / min-luma=0 / max-luma=1023 / log2-max-poc-lsb=8 / vui-timing-info / vui-hrd-info / slices=1 / no-opt-qp-pps / no-opt-ref-list-length-pps / no-multi-pass-opt-rps / scenecut-bias=0.05 / no-opt-cu-delta-qp / aq-motion / no-hdr / no-hdr-opt / no-dhdr10-opt / analysis-save=(null) / analysis-load=(null) / analysis-reuse-level=5 / scale-factor=0 / refine-intra=0 / refine-inter=0 / refine-mv=0 / no-limit-sao / ctu-info=0 / no-lowpass-dct / refine-mv-type=0 / copy-pic=1
Default                                  : Yes
Forced                                   : Yes

Audio #1
ID                                       : 2
Format                                   : AC-3
Format/Info                              : Audio Coding 3
Codec ID                                 : A_AC3
Duration                                 : 1 h 45 min
Bit rate mode                            : Constant
Bit rate                                 : 384 kb/s
Channel(s)                               : 6 channels
Channel positions                        : Front: L C R, Side: L R, LFE
Sampling rate                            : 48.0 kHz
Frame rate                               : 31.250 FPS (1536 SPF)
Bit depth                                : 16 bits
Compression mode                         : Lossy
Stream size                              : 288 MiB (7%)
Title                                    : Dub [iTunes]
Language                                 : Russian
Service kind                             : Complete Main
Default                                  : Yes
Forced                                   : No

Audio #2
ID                                       : 3
Format                                   : DTS
Format/Info                              : Digital Theater Systems
Codec ID                                 : A_DTS
Duration                                 : 1 h 45 min
Bit rate mode                            : Constant
Bit rate                                 : 756 kb/s
Channel(s)                               : 6 channels
Channel positions                        : Front: L C R, Side: L R, LFE
Sampling rate                            : 48.0 kHz
Frame rate                               : 93.750 FPS (512 SPF)
Bit depth                                : 24 bits
Compression mode                         : Lossy
Stream size                              : 568 MiB (14%)
Title                                    : Original
Language                                 : English
Default                                  : No
Forced                                   : No

Text #1
ID                                       : 4
Format                                   : UTF-8
Codec ID                                 : S_TEXT/UTF8
Codec ID/Info                            : UTF-8 Plain Text
Duration                                 : 1 s 1 ms
Bit rate                                 : 255 b/s
Count of elements                        : 1
Stream size                              : 32.0 Bytes (0%)
Title                                    : Forced
Language                                 : Russian
Default                                  : Yes
Forced                                   : No

Text #2
ID                                       : 5
Format                                   : UTF-8
Codec ID                                 : S_TEXT/UTF8
Codec ID/Info                            : UTF-8 Plain Text
Duration                                 : 1 h 34 min
Bit rate                                 : 94 b/s
Count of elements                        : 1168
Stream size                              : 65.7 KiB (0%)
Title                                    : Full
Language                                 : Russian
Default                                  : No
Forced                                   : No

Text #3
ID                                       : 6
Format                                   : UTF-8
Codec ID                                 : S_TEXT/UTF8
Codec ID/Info                            : UTF-8 Plain Text
Duration                                 : 1 h 37 min
Bit rate                                 : 63 b/s
Count of elements                        : 1441
Stream size                              : 45.6 KiB (0%)
Title                                    : Full
Language                                 : English
Default                                  : No
Forced                                   : No

Text #4
ID                                       : 7
Format                                   : UTF-8
Codec ID                                 : S_TEXT/UTF8
Codec ID/Info                            : UTF-8 Plain Text
Duration                                 : 1 h 38 min
Bit rate                                 : 77 b/s
Count of elements                        : 1722
Stream size                              : 55.9 KiB (0%)
Title                                    : SDH
Language                                 : English
Default                                  : No
Forced                                   : No

Text #5
ID                                       : 8
Format                                   : UTF-8
Codec ID                                 : S_TEXT/UTF8
Codec ID/Info                            : UTF-8 Plain Text
Duration                                 : 1 h 38 min
Bit rate                                 : 109 b/s
Count of elements                        : 1723
Stream size                              : 78.5 KiB (0%)
Title                                    : SDH Colored
Language                                 : English
Default                                  : No
Forced                                   : No

Menu
00:00:00.000                             : en:Chapter 1
00:06:40.191                             : en:Chapter 2
00:08:41.520                             : en:Chapter 3
00:11:13.589                             : en:Chapter 4
00:14:20.317                             : en:Chapter 5
00:17:06.942                             : en:Chapter 6
00:18:20.933                             : en:Chapter 7
00:22:05.991                             : en:Chapter 8
00:24:19.958                             : en:Chapter 9
00:27:44.829                             : en:Chapter 10
00:29:07.912                             : en:Chapter 11
00:32:15.308                             : en:Chapter 12
00:35:18.407                             : en:Chapter 13
00:41:25.524                             : en:Chapter 14
00:47:04.696                             : en:Chapter 15
00:50:54.175                             : en:Chapter 16
00:54:23.885                             : en:Chapter 17
00:56:45.026                             : en:Chapter 18
01:01:42.615                             : en:Chapter 19
01:03:28.137                             : en:Chapter 20
01:08:58.217                             : en:Chapter 21
01:15:17.262                             : en:Chapter 22
01:18:56.773                             : en:Chapter 23
01:21:31.761                             : en:Chapter 24
01:24:31.816                             : en:Chapter 25
01:28:23.464                             : en:Chapter 26
01:33:14.755                             : en:Chapter 27
01:36:10.472                             : en:Chapter 28




Скриншоты:
[+] Всего файлов в раздаче - 1:
Coco.2017.1080p.iTunes_HEVCCLUB.mkv4.04 GB

Текущая раздача:
ДатаКомментарии    РазмерПиры
2018-02-20 U Тайна Коко / Coco (2017) BDRip-HEVC 1080p от HEVC CLUB | iTunes 4.04 GB ↑ 358 ↓ 26

Показать еще раздачи по запросу тайна:
2018-04-14 U Тэд-путешественник и тайна царя Мидаса / Tadeo Jones 2: El secreto del Rey Midas (2017) BDRip 1080p | Лицензия 8.72 GB ↑ 106 ↓ 24
2018-04-14 U Тэд-путешественник и тайна царя Мидаса / Tadeo Jones 2: El secreto del Rey Midas (2017) BDRip 720p | Лицензия 4.03 GB ↑ 81 ↓ 21
2018-04-13 U Тэд-путешественник и тайна царя Мидаса / Tadeo Jones 2: El secreto del Rey Midas (2017) BDRip от MegaPeer | Лицензия 1.46 GB ↑ 58 ↓ 32
2018-04-08 U Тайна Коко / Coco (2017) HDRip от Scarabey | Лицензия 1.49 GB ↑ 885 ↓ 27
2018-04-07 U Тайна Коко / Coco (2017) HDRip от Scarabey | Лицензия 744.43 MB ↑ 97 ↓ 7
2018-04-07 U Тайна Коко / Coco (2017) BDRip-AVC от HELLYWOOD | Лицензия 1.46 GB ↑ 41 ↓ 11
2018-04-07 U Тайна Коко / Coco (2017) BDRip 1080p от Ash61 | 3D-Video | halfOU | Лицензия 8.42 GB ↑ 25 ↓ 13

Отзывы
Зарегистрируйтесь чтобы добавить комментарий.
Обратная связь
Copyleft ©