↑↓Torrent.by
Поиск
Логин: Регистрация
Пароль: Восстановить пароль
Загрузка...

Карп отмороженный (2017) WEB-DLRip-AVC от OlLanDGroup | iTunes

Скачать karp-otmorozhennyy-2017-web-dlrip-avc-ot-ollandgroup-itunes.torrent
U Магнитная ссылка Размер: 1.46 GB Раздают: 333 Качают: 41 Добавлен: 2018-02-21 06:46:13
Карп отмороженный (2017) WEB-DLRip-AVC от OlLanDGroup | iTunes

Карп отмороженный
«Пришло время оттаять»

Год выпуска: 2017
Страна: Россия
Производство: Кинокомпания КиноКластер
Жанр:  Комедия, драма

Режиссёр: Владимир Котт
В ролях: Марина Неёлова, Алиса Фрейндлих, Евгений Миронов, Сергей Пускепалис, Александр Баширов, Наталья Суркова, Татьяна Рассказова, Антон Шпиньков, Артем Лещик, Анна Екатерининская

Перевод: Не требуется | iTunes
Субтитры: Нет
Реклама: Отсутствует

Описание: Елена Михайловна скромно живёт на пенсии в провинциальном городке. Неожиданно для себя она узнаёт о смертельном диагнозе, который может в любой момент оборвать её жизнь. Чтобы лишний раз не тревожить любимого, но постоянно занятого сына, работающего в большом городе бизнес-тренером, и избавить его от потенциальных забот, Елена Михайловна берет дело в свои руки и принимается активно хлопотать над организацией собственных похорон, при участии близких подруг и других обитателей родного городка.

Качество: WEB-DLRip-AVC
Продолжительность: 01:40:09

Формат: MKV
Видео кодек: MPEG-4 AVC
Аудио кодек: AC3
Видео: 1024x552 (1.85:1), 23,976 fps, x264 ~1 714 kbps avg, 0.126 bit/pixel
Аудио: 48 kHz, AC3 Dolby Digital, 3/2 (L,C,R,l,r) + LFE ch, ~384.00 kbps avg | RUS (iTunes)

Дата премьеры (мир): 7 ноября 2017
Дата премьеры (РФ): 18 января 2018, «Кинологистика»

Релиз: Rip by:


[+] MediaInfo

Общее
Уникальный идентификатор                 : 178497337957548368381282053967998192120 (0x864956399C99A83B8C455DAB3BD989F8)
Полное имя                               : E:OlLanDGroupKarp.Otmorozhennyj.2017.WEB-DLRip(AVC).OlLanDGroup.mkv
Формат                                   : Matroska
Версия формата                           : Version 2
Размер файла                             : 1,46 Гбайт
Продолжительность                        : 1 ч. 39 м.
Общий поток                              : 2099 Кбит/сек
Название фильма                          : Karp.Otmorozhennyj.2017   #TorpedoUK#
Дата кодирования                         : UTC 2018-02-20 15:10:42
Программа кодирования                    : mkvmerge v7.8.0 ('River Man') 32bit built on Apr  3 2015 12:11:22
Библиотека кодирования                   : libebml v1.3.1 + libmatroska v1.4.2

Видео
Идентификатор                            : 1
Формат                                   : AVC
Формат/Информация                        : Advanced Video Codec
Профиль формата                          : High@L4.1
Параметр CABAC формата                   : Да
Параметр ReFrames формата                : 10 кадров
Идентификатор кодека                     : V_MPEG4/ISO/AVC
Продолжительность                        : 1 ч. 39 м.
Битрейт                                  : 1714 Кбит/сек
Ширина                                   : 1024 пикселя
Высота                                   : 552 пикселя
Соотношение сторон                       : 1,85:1
Режим частоты кадров                     : Постоянный
Частота кадров                           : 23,976 (24000/1001) кадра/сек
Цветовое пространство                    : YUV
Субдискретизация насыщенности            : 4:2:0
Битовая глубина                          : 8 бит
Тип развёртки                            : Прогрессивная
Бит/(Пиксели*Кадры)                      : 0.126
Размер потока                            : 1,16 Гбайт (80%)
Библиотека кодирования                   : x264 core 146 r2538 121396c
Настройки программы                      : cabac=1 / ref=10 / deblock=1:-3:-3 / analyse=0x3:0x133 / me=umh / subme=11 / psy=1 / psy_rd=0.98:0.07 / mixed_ref=1 / me_range=48 / chroma_me=1 / trellis=2 / 8x8dct=1 / cqm=0 / deadzone=21,11 / fast_pskip=1 / chroma_qp_offset=-3 / threads=6 / lookahead_threads=1 / sliced_threads=0 / nr=0 / decimate=1 / interlaced=0 / bluray_compat=0 / constrained_intra=0 / bframes=10 / b_pyramid=2 / b_adapt=2 / b_bias=0 / direct=3 / weightb=1 / open_gop=0 / weightp=2 / keyint=240 / keyint_min=23 / scenecut=40 / intra_refresh=0 / rc_lookahead=40 / rc=2pass / mbtree=0 / bitrate=1714 / ratetol=1.0 / qcomp=0.60 / qpmin=0 / qpmax=69 / qpstep=4 / cplxblur=20.0 / qblur=0.5 / vbv_maxrate=50000 / vbv_bufsize=62500 / nal_hrd=none / filler=0 / ip_ratio=1.40 / pb_ratio=1.30 / aq=1:1.00
Default                                  : Да
Forced                                   : Нет

Аудио
Идентификатор                            : 2
Формат                                   : AC-3
Формат/Информация                        : Audio Coding 3
Расширение режима                        : CM (complete main)
Параметр Endianness формата              : Big
Идентификатор кодека                     : A_AC3
Продолжительность                        : 1 ч. 39 м.
Вид битрейта                             : Постоянный
Битрейт                                  : 384 Кбит/сек
Каналы                                   : 6 каналов
Расположение каналов                     : Front: L C R, Side: L R, LFE
Частота                                  : 48,0 КГц
Частота кадров                           : 31,250 кадров/сек (1536 spf)
Битовая глубина                          : 16 бит
Метод сжатия                             : С потерями
Размер потока                            : 273 Мбайт (18%)
Заголовок                                : [ORIGINAL] DD 5.1 @ 384 kbps (iTunes)
Язык                                     : Russian
Default                                  : Да
Forced                                   : Нет

Меню
00:00:00.000                             : en:1
00:03:20.000                             : en:2
00:12:00.000                             : en:3
00:21:49.000                             : en:4
00:34:03.000                             : en:5
00:44:50.000                             : en:6
00:54:50.000                             : en:7
00:59:15.000                             : en:8
01:12:38.000                             : en:9
01:21:43.000                             : en:10
01:37:02.000                             : en:11



Скриншоты:
[+] Всего файлов в раздаче - 1:
Karp.Otmorozhennyj.2017.WEB-DLRip(AVC).OlLanDGroup.mkv1.46 GB

Текущая раздача:
ДатаКомментарии    РазмерПиры
2018-02-21 U Карп отмороженный (2017) WEB-DLRip-AVC от OlLanDGroup | iTunes 1 К 1.46 GB ↑ 333 ↓ 41

Показать еще раздачи по запросу карп:
2018-03-25 U Карп отмороженный (2017) BDRip от ExKinoRay | Лицензия 1.46 GB ↑ 129 ↓ 38
2018-03-22 U Карп отмороженный (2017) BDRip от MegaPeer | Лицензия 1К1.46 GB ↑ 107 ↓ 29
2018-03-18 U Карп отмороженный (2017) HDRip от Scarabey | Лицензия 1.45 GB ↑ 93 ↓ 25
2018-03-14 U Карп отмороженный (2017) HDRip от MegaPeer | Лицензия 746.92 MB ↑ 50 ↓ 15
2018-03-14 U Карп отмороженный (2017) BDRip 720p | Лицензия 5.69 GB ↑ 90 ↓ 35
2018-03-14 U Карп отмороженный (2017) BDRip 1080p | Лицензия 9.17 GB ↑ 81 ↓ 42
2018-03-14 U Карп отмороженный (2017) HDRip | Лицензия 1.46 GB ↑ 91 ↓ 69

Отзывы
uvassabi
Глупость какая-то отмороженная.
Актеры шикарные и игра хорошая, но сюжет полный бред.

Зарегистрируйтесь чтобы добавить комментарий.
Обратная связь
Copyleft ©