↑↓Torrent.by
Поиск
Логин: Регистрация
Пароль: Восстановить пароль
Загрузка...

Старики (2015) HDTVRip

Скачать stariki-2015-hdtvrip.torrent
U Магнитная ссылка Размер: 1.46 GB Раздают: 53 Качают: 31 Добавлен: 2018-02-21 06:48:42
Старики (2015) HDTVRip

Старики

Страна: Россия
Год выпуска: 2015
Жанр:  драма
Продолжительность: 01:46:31

Режиссер: Владимир Вобликов

В ролях: Виталий Стужев, Ирина Сидорова, Сергей Фетисов, Михаил Асанкин, Михаил Шилов, Василий Шмаков, Александра Агранович

Описание: Три пожилых человека — Мультик, Гастрит и Анна — живут одни в заброшенной деревне за 10 километров от районного центра. Они живут только надеждой, что когда-нибудь к ним приедут их дети, которые давно о них забыли. Это по-доброму сумасшедшие люди, которые хотят добра другим, а в своей жизни мало чего хорошего видели. Старики ссорятся, мирятся, сватаются, женятся, но, понимая, что всё это бессмысленно, решают взять судьбу в свои руки и доказать, что не всё ещё потеряно...

Перевод: не требуется (оригинал)
Субтитры: нет

Качество: HDTVRip | исходник Старики.2015.HDTV.1080i-ylnian
Формат: AVI
Видео кодек: XviD
Аудио кодек: АС3
Видео: 720x400 (16:9), 25.000 fps, XviD build 67 ~1 501 kbps avg
Аудио: 48.0 kHz, AC3 Dolby Digital, 3/2 (L,C,R,l,r) + LFE ch, ~448 kbps

Дата премьеры (РФ): 10 августа 2011

Релиз от: ylnian / запись источника HDTV 1080i с канала Наш Кинороман HD


[+] Media Info
General
Полное имя                               : Старики.2015.HDTVRip-ylnian.avi
Формат                                   : AVI
Формат/Информация                        : Audio Video Interleave
Размер файла                             : 1,46 Гбайт
Продолжительность                        : 1 ч. 46 м.
Общий поток                              : 1958 Кбит/сек
Программа кодирования                    : VirtualDubMod 1.5.10.2 (build 2540/release)
Библиотека кодирования                   : VirtualDubMod build 2540/release

Видео
Идентификатор                            : 0
Формат                                   : MPEG-4 Visual
Профиль формата                          : Advanced Simple@L5
Настройки формата                        : BVOP1
Параметр BVOP формата                    : 1
Параметр QPel формата                    : Нет
Параметр GMC формата                     : Без точки перехода
Параметр матрицы формата                 : Default (MPEG)
Идентификатор кодека                     : XVID
Идентификатор кодека/Подсказка           : XviD
Продолжительность                        : 1 ч. 46 м.
Битрейт                                  : 1501 Кбит/сек
Ширина                                   : 720 пикселей
Высота                                   : 400 пикселей
Соотношение сторон                       : 16:9
Частота кадров                           : 25,000 кадров/сек
Цветовое пространство                    : YUV
Субдискретизация насыщенности            : 4:2:0
Битовая глубина                          : 8 бит
Тип развёртки                            : Прогрессивная
Метод сжатия                             : С потерями
Бит/(Пиксели*Кадры)                      : 0.208
Размер потока                            : 1,12 Гбайт (77%)
Библиотека кодирования                   : XviD 67

Аудио
Идентификатор                            : 1
Формат                                   : AC-3
Формат/Информация                        : Audio Coding 3
Идентификатор кодека                     : 2000
Продолжительность                        : 1 ч. 46 м.
Вид битрейта                             : Постоянный
Битрейт                                  : 448 Кбит/сек
Каналы                                   : 6 каналов
Расположение каналов                     : Front: L C R, Side: L R, LFE
Частота                                  : 48,0 КГц
Частота кадров                           : 31,250 кадров/сек (1536 SPF)
Битовая глубина                          : 16 бит
Метод сжатия                             : С потерями
Размер потока                            : 341 Мбайт (23%)
Выравнивание                             : Разделение по промежуткам
Продолжительность промежутка             : 40  мс. (1,00 видеокадр)
Время предзагрузки промежутка            : 500  мс.



Скриншоты:
[+] Всего файлов в раздаче - 1:
Старики.2015.HDTVRip-ylnian.avi1.46 GB

Текущая раздача:
ДатаКомментарии    РазмерПиры
2018-02-21 U Старики (2015) HDTVRip 1.46 GB ↑ 53 ↓ 31

Похожие раздачи по запросу - старики:
2018-03-01 U Старики-разведчики / Kundschafter des Friedens (2017) HDRip | GreenРай Studio 1.37 GB ↑ 303 ↓ 31
2018-03-01 U Старики-разведчики / Kundschafter des Friedens (2017) HDRip 720p | GreenРай Studio 2.97 GB ↑ 94 ↓ 59
2018-02-14 U Старики-разведчики / Kundschafter des Friedens (2017) WEBRip | Sub 1.35 GB ↑ 254 ↓ 33
2017-12-14 U Старики-разведчики / Kundschafter des Friedens (2017) BDRip-AVC | L1 647.02 MB ↑ 295 ↓ 87
2013-11-07 U В бой идут одни «старики» (1973) BDRip от HQCLUB | Цветная версия 2К1.45 GB ↑ 665 ↓ 39

Отзывы
Зарегистрируйтесь чтобы добавить комментарий.
Обратная связь
Copyleft ©