↑↓Torrent.by
Поиск
Логин: Регистрация
Пароль: Восстановить пароль
Загрузка...

Рок (2017) WEB-DLRip-AVC от OlLanDGroup | iTunes

Скачать rok-2017-web-dlrip-avc-ot-ollandgroup-itunes.torrent
U Магнитная ссылка Размер: 1.32 GB Раздают: 374 Качают: 59 Добавлен: 2018-02-22 15:48:12
Рок (2017) WEB-DLRip-AVC от OlLanDGroup | iTunes

Рок
«Роковое приключение!»

Год выпуска: 2017
Страна: Россия
Производство: Кинокомпания ВГИК-Дебют
Жанр:  Приключения, драма

Режиссёр: Иван Шахназаров
В ролях: Дмитрий Чеботарёв, Иван Ивашкин, Кирилл Фролов, Никита Тарасов, Виталий Кищенко, Евгений Стычкин, Валерий Жуков, Георгий Пицхелаури, Евгений Мундум, Полина Северная, Елена Сафронова

Перевод: Не требуется | iTunes
Субтитры: Нет
Реклама: Отсутствует

Описание: «Рок» — музыкальный жанр или злая судьба? Героев фильма, которые отправились покорять Москву, сопровождает и то, и другое. Эта троица даже еще не группа и не команда и, наверное, не друзья. Но так было в начале пути. Чем дальше ребята удаляются от дома, чем опаснее их приключения и встреченные на пути люди, тем сильнее они меняются внутренне. Этот путь стал самым большим, ярким, опасным и незабываемым приключением в жизни молодых провинциальных музыкантов.

Качество: WEB-DLRip-AVC
Продолжительность: 01:27:03

Формат: MKV
Видео кодек: MPEG-4 AVC
Аудио кодек: AC3
Видео: 1024x426 (2.40:1), 23,976 fps, x264 ~1 777 kbps avg, 0.170 bit/pixel
Аудио: 48 kHz, AC3 Dolby Digital, 3/2 (L,C,R,l,r) + LFE ch, ~384.00 kbps avg | RUS (iTunes)

Дата премьеры (мир): 9 ноября 2017
Дата премьеры (РФ): 9 ноября 2017, «Централ Партнершип»

Релиз: Rip by:


[+] MediaInfo

Общее
Уникальный идентификатор                 : 244660541588370551949651277074754818805 (0xB80FE804F2BFDB0E9F9BEE530531D2F5)
Полное имя                               : E:OlLanDGroupRok.2017.WEB-DLRip(AVC).OlLanDGroup.mkv
Формат                                   : Matroska
Версия формата                           : Version 2
Размер файла                             : 1,32 Гбайт
Продолжительность                        : 1 ч. 27 м.
Общий поток                              : 2164 Кбит/сек
Название фильма                          : Rok.2017   #TorpedoUK#
Дата кодирования                         : UTC 2018-02-22 09:01:56
Программа кодирования                    : mkvmerge v7.8.0 ('River Man') 32bit built on Apr  3 2015 12:11:22
Библиотека кодирования                   : libebml v1.3.1 + libmatroska v1.4.2

Видео
Идентификатор                            : 1
Формат                                   : AVC
Формат/Информация                        : Advanced Video Codec
Профиль формата                          : High@L4.1
Параметр CABAC формата                   : Да
Параметр ReFrames формата                : 10 кадров
Идентификатор кодека                     : V_MPEG4/ISO/AVC
Продолжительность                        : 1 ч. 27 м.
Битрейт                                  : 1777 Кбит/сек
Ширина                                   : 1024 пикселя
Высота                                   : 426 пикселей
Соотношение сторон                       : 2,40:1
Режим частоты кадров                     : Постоянный
Частота кадров                           : 23,976 (24000/1001) кадра/сек
Цветовое пространство                    : YUV
Субдискретизация насыщенности            : 4:2:0
Битовая глубина                          : 8 бит
Тип развёртки                            : Прогрессивная
Бит/(Пиксели*Кадры)                      : 0.170
Размер потока                            : 1,06 Гбайт (80%)
Библиотека кодирования                   : x264 core 146 r2538 121396c
Настройки программы                      : cabac=1 / ref=10 / deblock=1:-2:-3 / analyse=0x3:0x133 / me=umh / subme=11 / psy=1 / psy_rd=0.95:0.08 / mixed_ref=1 / me_range=48 / chroma_me=1 / trellis=2 / 8x8dct=1 / cqm=0 / deadzone=21,11 / fast_pskip=1 / chroma_qp_offset=-3 / threads=6 / lookahead_threads=1 / sliced_threads=0 / nr=0 / decimate=1 / interlaced=0 / bluray_compat=0 / constrained_intra=0 / bframes=10 / b_pyramid=2 / b_adapt=2 / b_bias=0 / direct=3 / weightb=1 / open_gop=0 / weightp=2 / keyint=240 / keyint_min=23 / scenecut=40 / intra_refresh=0 / rc_lookahead=40 / rc=2pass / mbtree=0 / bitrate=1777 / ratetol=1.0 / qcomp=0.60 / qpmin=0 / qpmax=69 / qpstep=4 / cplxblur=20.0 / qblur=0.5 / vbv_maxrate=50000 / vbv_bufsize=62500 / nal_hrd=none / filler=0 / ip_ratio=1.40 / pb_ratio=1.30 / aq=1:1.00
Язык                                     : English
Default                                  : Да
Forced                                   : Нет

Аудио
Идентификатор                            : 2
Формат                                   : AC-3
Формат/Информация                        : Audio Coding 3
Расширение режима                        : CM (complete main)
Параметр Endianness формата              : Big
Идентификатор кодека                     : A_AC3
Продолжительность                        : 1 ч. 27 м.
Вид битрейта                             : Постоянный
Битрейт                                  : 384 Кбит/сек
Каналы                                   : 6 каналов
Расположение каналов                     : Front: L C R, Side: L R, LFE
Частота                                  : 48,0 КГц
Частота кадров                           : 31,250 кадров/сек (1536 spf)
Битовая глубина                          : 16 бит
Метод сжатия                             : С потерями
Размер потока                            : 239 Мбайт (18%)
Заголовок                                : iTunes
Язык                                     : Russian
Default                                  : Да
Forced                                   : Нет

Меню
00:00:00.000                             : en:1
00:01:47.000                             : en:2
00:11:15.000                             : en:3
00:19:38.000                             : en:4
00:27:54.000                             : en:5
00:37:20.000                             : en:6
00:48:12.000                             : en:7
00:58:35.000                             : en:8
01:08:08.000                             : en:9
01:15:52.000                             : en:10
01:24:02.000                             : en:11



Скриншоты:
[+] Всего файлов в раздаче - 1:
Rok.2017.WEB-DLRip(AVC).OlLanDGroup.mkv1.32 GB

Текущая раздача:
ДатаКомментарии    РазмерПиры
2018-02-22 U Рок (2017) WEB-DLRip-AVC от OlLanDGroup | iTunes 1.32 GB ↑ 374 ↓ 59

Показать еще раздачи по запросу dlrip:
Сегодня U Тайна магазина игрушек / Tea Pets (2017) WEB-DLRip-AVC от OlLanDGroup | Локализованная версия | iTunes 1.50 GB ↑ 77 ↓ 13
Сегодня U Ивановы-Ивановы [03x01-15 из 20] (2018) WEB-DLRip-AVC от Files-x 4.45 GB ↑ 76 ↓ 421
Сегодня U Проклятие монахини / The Nun (2018) WEB-DLRip-AVC от ExKinoRay | iTunes 1.70 GB ↑ 114 ↓ 48
Сегодня U Магия превыше всего (2018) WEB-DLRip 520.08 MB ↑ 197 ↓ 25
Сегодня U Тайна магазина игрушек / Tea Pets (2017) WEB-DLRip от MegaPeer | Локализованная версия | iTunes 1.46 GB ↑ 215 ↓ 30
Сегодня U Проклятие монахини / The Nun (2018) WEB-DLRip от MegaPeer | iTunes 1.46 GB ↑ 371 ↓ 217
Вчера U Архипелаг (2015) WEB-DLRip от MegaPeer 1.46 GB ↑ 63 ↓ 36

Отзывы
Зарегистрируйтесь чтобы добавить комментарий.
Обратная связь
Copyleft ©