↑↓Torrent.by
Поиск
Логин: Регистрация
Пароль: Восстановить пароль
Загрузка...

Легенда о Коловрате (2017) BDRemux 1080p | GER Transfer | Лицензия

Скачать legenda-o-kolovrate-2017-bdremux-1080p-ger-transfer-licenziya.torrent
U Магнитная ссылка Размер: 32.30 GB Раздают: 91 Качают: 236 Добавлен: 2018-02-24 17:57:08
Легенда о Коловрате (2017) BDRemux 1080p | GER Transfer | Лицензия

«Героем может стать каждый»

Название: Легенда о Коловрате
Год выхода: 2017
Жанр:  История, боевик, фэнтези
Режиссер: Джаник Файзиев, Иван Шурховецкий
В ролях: Илья Малаков, Полина Чернышова, Алексей Серебряков, Александр Ильин мл., Игорь Савочкин, Тимофей Трибунцев, Александр Цой, Юлия Хлынина, Андрей Бурковский, Виктор Проскурин

О фильме:
XIII век. Русь раздроблена и вот-вот падет на колени перед ханом Золотой Орды Батыем. Испепеляя города и заливая русские земли кровью, захватчики не встречают серьезного сопротивления, и лишь один воин бросает им вызов. Молодой рязанский витязь Евпатий Коловрат возглавляет отряд смельчаков, чтобы отомстить за свою любовь и за свою родину. Его отвага поразит даже Батыя, а его имя навсегда останется в памяти народа. Воин, ставший легендой. Подвиг, сохранившийся в веках.

Страна: Россия
Студия: Централ Партнершип, Киностудия КИТ, Продюсерский центр ИВАН
Продолжительность: 1:57:52
Перевод: Не требуется | Лицензия

Файл
Качество: BDRemux 1080p
Формат: MKV
Кодек: MPEG-4 AVC Video
Видео: 1920x1080 (16:9), 23,976 fps, MPEG-4 AVC Video ~ 33,0 Мbps avg, 0.664 bit/pixel
Аудио#1: DTS-HD MA, 48 kHz, 6 ch, ~2090.00 kbps avg | русский | Blu-ray GER
Аудио#2: DTS-HD MA, 48 kHz, 6 ch, ~4100.00 kbps avg | немецкий | Blu-ray GER

Субтитры: Немецкие (Forced)
Семпл


[+] Инфо-файл
Общее
Уникальный идентификатор                 : 202325685102741490655015042287403315125 (0x983682719800B13BAEDE797D9164AFB5)
Полное имя                               : LEGENDA.O.KOLOVRATE.2017.Blu.Ray.REMUX.GER.1080p. AVC.DTS-HD.MA 5.1-PWR.mkv
Формат                                   : Matroska
Версия формата                           : Version 4 / Version 2
Размер файла                             : 32,3 Гбайт
Продолжительность                        : 1 ч. 57 м.
Режим общего битрейта                    : Переменный
Общий поток                              : 39,2 Мбит/сек
Дата кодирования                         : UTC 2018-02-24 06:18:24
Программа кодирования                    : mkvmerge v9.7.1 ('Pandemonium') 64bit
Библиотека кодирования                   : libebml v1.3.4 + libmatroska v1.4.5

Видео
Идентификатор                            : 1
Формат                                   : AVC
Формат/Информация                        : Advanced Video Codec
Профиль формата                          : High@L4.1
Настройки формата                        : CABAC / 3 Ref Frames
Параметр CABAC формата                   : Да
Параметр ReFrames формата                : 3 кадра
Идентификатор кодека                     : V_MPEG4/ISO/AVC
Продолжительность                        : 1 ч. 57 м.
Вид битрейта                             : Переменный
Битрейт                                  : 33,0 Мбит/сек
Максимальный битрейт                     : 37,0 Мбит/сек
Ширина                                   : 1920 пикселей
Высота                                   : 1080 пикселей
Соотношение сторон                       : 16:9
Режим частоты кадров                     : Постоянный
Частота кадров                           : 23,976 (24000/1001) кадра/сек
Цветовое пространство                    : YUV
Субдискретизация насыщенности            : 4:2:0
Битовая глубина                          : 8 бит
Тип развёртки                            : Прогрессивная
Бит/(Пиксели*Кадры)                      : 0.664
Размер потока                            : 27,2 Гбайт (84%)
Default                                  : Да
Forced                                   : Нет

Аудио #1
Идентификатор                            : 2
Формат                                   : DTS
Формат/Информация                        : Digital Theater Systems
Профиль формата                          : MA / Core
Идентификатор кодека                     : A_DTS
Продолжительность                        : 1 ч. 57 м.
Вид битрейта                             : Переменный / Постоянный
Битрейт                                  : 2090 Кбит/сек / 1509 Кбит/сек
Каналы                                   : 6 каналов
Расположение каналов                     : Front: L C R, Side: L R, LFE
Частота                                  : 48,0 КГц
Частота кадров                           : 93,750 кадра/сек (512 SPF)
Битовая глубина                          : 16 бит
Метод сжатия                             : Без потерь / Lossy
Размер потока                            : 1,72 Гбайт (5%)
Язык                                     : Russian
Default                                  : Да
Forced                                   : Нет

Аудио #2
Идентификатор                            : 3
Формат                                   : DTS
Формат/Информация                        : Digital Theater Systems
Профиль формата                          : MA / Core
Идентификатор кодека                     : A_DTS
Продолжительность                        : 1 ч. 57 м.
Вид битрейта                             : Переменный / Постоянный
Битрейт                                  : 4100 Кбит/сек / 1509 Кбит/сек
Каналы                                   : 6 каналов
Расположение каналов                     : Front: L C R, Side: L R, LFE
Частота                                  : 48,0 КГц
Частота кадров                           : 93,750 кадра/сек (512 SPF)
Битовая глубина                          : 24 бит
Метод сжатия                             : Без потерь / Lossy
Размер потока                            : 3,38 Гбайт (10%)
Язык                                     : German
Default                                  : Нет
Forced                                   : Нет

Текст
Идентификатор                            : 4
Формат                                   : UTF-8
Идентификатор кодека                     : S_TEXT/UTF8
Идентификатор кодека/Информация          : UTF-8 Plain Text
Продолжительность                        : 1 ч. 38 м.
Битрейт                                  : 3 бит/сек
ElementCount                             : 88
Размер потока                            : 2,87 Кбайт (0%)
Язык                                     : German
Default                                  : Нет
Forced                                   : Нет

Меню
00:00:00.000                             : en:00:00:00.000
00:08:35.098                             : en:00:08:35.098
00:18:09.338                             : en:00:18:09.338
00:28:31.919                             : en:00:28:31.919
00:37:28.455                             : en:00:37:28.455
00:47:46.822                             : en:00:47:46.822
00:59:16.303                             : en:00:59:16.303
01:10:23.761                             : en:01:10:23.761
01:17:08.374                             : en:01:17:08.374
01:31:40.412                             : en:01:31:40.412
01:40:22.516                             : en:01:40:22.516
01:47:39.244                             : en:01:47:39.244



Скриншоты:
[+] Всего файлов в раздаче - 1:
LEGENDA.O.KOLOVRATE.2017.Blu.Ray.REMUX.GER.1080p. AVC.DTS-HD.MA 5.1-PWR.mkv32.30 GB

Текущая раздача:
ДатаКомментарии    РазмерПиры
2018-02-24 U Легенда о Коловрате (2017) BDRemux 1080p | GER Transfer | Лицензия 32.30 GB ↑ 91 ↓ 236

Показать еще раздачи по запросу легенда:
2018-09-04 U Смрадное дыхание: Легенда о Жопороте / Hellitosis: The Legend of Stankmouth (2017) WEBRip | L1 847.30 MB ↑ 123 ↓ 12
2018-07-27 U Легенда о Тиле (1976) DVDRip-AVC от KORSAR 7.69 GB ↑ 38 ↓ 17
2018-07-15 U Большая легенда / Big Legend (2018) WEB-DLRip-AVC от OlLanDGroup | HDRezka Studio 1.46 GB ↑ 109 ↓ 57
2018-07-11 U Большая легенда / Big Legend (2018) WEB-DL 1080p | L2 6.08 GB ↑ 31 ↓ 17
2018-07-10 U Большая легенда / Big Legend (2018) WEBRip 720p | L2 2.12 GB ↑ 57 ↓ 30
2018-07-10 U Большая легенда / Big Legend (2018) WEBRip | L2 1.31 GB ↑ 186 ↓ 64
2018-07-06 U Большая легенда / Big Legend (2018) WEB-DL 1080p | L1 6.36 GB ↑ 72 ↓ 30

Отзывы
Зарегистрируйтесь чтобы добавить комментарий.
Обратная связь
Copyleft ©