↑↓Torrent.by
Поиск
Логин: Регистрация
Пароль: Восстановить пароль
Загрузка...

Легенда о Коловрате (2017) BDRip 1080p от OlLanDGroup | Лицензия

Скачать legenda-o-kolovrate-2017-bdrip-1080p-ot-ollandgroup-licenziya.torrent
U Магнитная ссылка Размер: 9.44 GB Раздают: 224 Качают: 202 Добавлен: 2018-02-25 08:49:25
Легенда о Коловрате (2017) BDRip 1080p от OlLanDGroup | Лицензия

Название: Легенда о Коловрате
Год выпуска: 2017
Жанр:  Фэнтези, приключения, история
Выпущено: Россия, Централ Партнершип
Режиссер: Иван Шурховецкий
В ролях: Илья Малаков, Полина Чернышова, Алексей Серебряков, Александр Ильин мл., Игорь Савочкин, Тимофей Трибунцев, Александр Цой, Юлия Хлынина, Андрей Бурковский, Виктор Проскурин

О фильме: XIII век. Русь раздроблена и вот-вот падет на колени перед ханом Золотой Орды Батыем. Испепеляя города и заливая русские земли кровью, захватчики не встречают серьезного сопротивления, и лишь один воин бросает им вызов. Молодой рязанский витязь Евпатий Коловрат возглавляет отряд смельчаков, чтобы отомстить за свою любовь и за свою родину. Его отвага поразит даже Батыя, а его имя навсегда останется в памяти народа. Воин, ставший легендой. Подвиг, сохранившийся в веках.

Качество: BDRip (1080p)
Видео: MPEG-4 AVC, 9332 Кбит/с, 1920x804, 23.976 кадр/с
Аудио: Русский (AC3, 6 ch, 640 Кбит/с), (DTS, 6 ch, 1509 Кбит/с)
Размер: 9.44 ГБ
Продолжительность: 1:57:52
Язык: Русский

Озвучивание - (Лицензия)
Сохранены оригинальные чаптеры как на Blu-Ray.

Релиз:  Rip by:


[+] x264

x264 [info]: frame I:1309  Avg QP:16.27  size:232382
x264 [info]: frame P:47071 Avg QP:19.69  size: 83050
x264 [info]: frame B:121184 Avg QP:21.07  size: 33183
x264 [info]: consecutive B-frames:  5.7%  8.7% 16.7% 19.2% 12.3% 21.5%  8.0%  6.0%  1.0%  0.4%  0.4%
x264 [info]: mb I  I16..4:  4.9% 84.3% 10.8%
x264 [info]: mb P  I16..4:  0.8% 18.5%  1.6%  P16..4: 28.7% 32.8% 10.9%  1.5%  0.1%    skip: 5.1%
x264 [info]: mb B  I16..4:  0.1%  2.4%  0.3%  B16..8: 36.2% 22.8%  3.7%  direct: 7.8%  skip:26.6%  L0:39.2% L1:44.6% BI:16.2%
x264 [info]: 8x8 transform intra:87.0% inter:63.1%
x264 [info]: direct mvs  spatial:97.2% temporal:2.8%
x264 [info]: coded y,uvDC,uvAC intra: 90.1% 86.5% 59.3% inter: 34.6% 33.3% 15.3%
x264 [info]: i16 v,h,dc,p: 17% 10%  5% 67%
x264 [info]: i8 v,h,dc,ddl,ddr,vr,hd,vl,hu:  9%  7%  6% 10% 14% 13% 15% 12% 15%
x264 [info]: i4 v,h,dc,ddl,ddr,vr,hd,vl,hu: 35%  6%  5%  6% 11% 10% 11%  8%  9%
x264 [info]: i8c dc,h,v,p: 43% 21% 18% 18%
x264 [info]: Weighted P-Frames: Y:2.3% UV:1.1%
x264 [info]: ref P L0: 53.7% 14.2% 18.8%  6.1%  5.8%  1.4%  0.0%
x264 [info]: ref B L0: 80.8% 14.1%  3.9%  1.2%
x264 [info]: ref B L1: 94.5%  5.5%
x264 [info]: kb/s:9314.94



[+] Инфо-файл

Общее
Уникальный идентификатор                 : 218951274069476671775224662937456425705 (0xA4B87B4430178ED1B792A202FE653AE9)
Полное имя                               : D:ЗагрузкиLegenda.O.Kolovrate.2017.x264.BDRip.(1080p).OlLanDGroup.mkv
Формат                                   : Matroska
Версия формата                           : Version 4 / Version 2
Размер файла                             : 9,44 Гбайт
Продолжительность                        : 1 ч. 57 м.
Общий поток                              : 11,5 Мбит/сек
Название фильма                          : Легенда о Коловрате.2017.Rip by: ollan
Дата кодирования                         : UTC 2018-02-25 02:31:02
Программа кодирования                    : mkvmerge v6.5.0 ('Isn't she lovely') built on Oct 20 2013 12:50:05
Библиотека кодирования                   : libebml v1.3.0 + libmatroska v1.4.1
Attachements                             : Cover - Legenda.O.Kolovrate.png

Видео
Идентификатор                            : 1
Формат                                   : AVC
Формат/Информация                        : Advanced Video Codec
Профиль формата                          : High@L4.1
Параметр CABAC формата                   : Да
Параметр ReFrames формата                : 5 кадров
Идентификатор кодека                     : V_MPEG4/ISO/AVC
Продолжительность                        : 1 ч. 57 м.
Битрейт                                  : 9332 Кбит/сек
Ширина                                   : 1920 пикселей
Высота                                   : 804 пикселя
Соотношение сторон                       : 2,40:1
Режим частоты кадров                     : Постоянный
Частота кадров                           : 23,976 (24000/1001) кадра/сек
Цветовое пространство                    : YUV
Субдискретизация насыщенности            : 4:2:0
Битовая глубина                          : 8 бит
Тип развёртки                            : Прогрессивная
Бит/(Пиксели*Кадры)                      : 0.252
Размер потока                            : 7,48 Гбайт (79%)
Библиотека кодирования                   : x264 core 146 r2538 121396c
Настройки программы                      : cabac=1 / ref=5 / deblock=1:-3:-3 / analyse=0x3:0x133 / me=umh / subme=11 / psy=1 / psy_rd=0.97:0.05 / mixed_ref=1 / me_range=64 / chroma_me=1 / trellis=2 / 8x8dct=1 / cqm=0 / deadzone=21,11 / fast_pskip=0 / chroma_qp_offset=-3 / threads=12 / lookahead_threads=3 / sliced_threads=0 / nr=0 / decimate=0 / interlaced=0 / bluray_compat=0 / constrained_intra=0 / bframes=10 / b_pyramid=2 / b_adapt=2 / b_bias=0 / direct=3 / weightb=1 / open_gop=0 / weightp=2 / keyint=240 / keyint_min=23 / scenecut=40 / intra_refresh=0 / rc_lookahead=40 / rc=2pass / mbtree=0 / bitrate=9332 / ratetol=1.0 / qcomp=0.60 / qpmin=0 / qpmax=69 / qpstep=4 / cplxblur=20.0 / qblur=0.5 / vbv_maxrate=50000 / vbv_bufsize=62500 / nal_hrd=none / filler=0 / ip_ratio=1.40 / pb_ratio=1.30 / aq=1:1.00
Язык                                     : Russian
Default                                  : Да
Forced                                   : Нет

Аудио #1
Идентификатор                            : 2
Формат                                   : AC-3
Формат/Информация                        : Audio Coding 3
Расширение режима                        : CM (complete main)
Параметр Endianness формата              : Big
Идентификатор кодека                     : A_AC3
Продолжительность                        : 1 ч. 57 м.
Вид битрейта                             : Постоянный
Битрейт                                  : 640 Кбит/сек
Каналы                                   : 6 каналов
Расположение каналов                     : Front: L C R, Side: L R, LFE
Частота                                  : 48,0 КГц
Частота кадров                           : 31,250 кадров/сек (1536 spf)
Метод сжатия                             : С потерями
Размер потока                            : 540 Мбайт (6%)
Заголовок                                : Лицензия
Язык                                     : Russian
Default                                  : Да
Forced                                   : Нет

Аудио #2
Идентификатор                            : 3
Формат                                   : DTS
Формат/Информация                        : Digital Theater Systems
Режим                                    : 16
Параметр Endianness формата              : Big
Идентификатор кодека                     : A_DTS
Продолжительность                        : 1 ч. 57 м.
Вид битрейта                             : Постоянный
Битрейт                                  : 1509 Кбит/сек
Каналы                                   : 6 каналов
Расположение каналов                     : Front: L C R, Side: L R, LFE
Частота                                  : 48,0 КГц
Частота кадров                           : 93,750 кадра/сек (512 spf)
Битовая глубина                          : 16 бит
Метод сжатия                             : С потерями
Размер потока                            : 1,24 Гбайт (13%)
Заголовок                                : Лицензия
Язык                                     : Russian
Default                                  : Нет
Forced                                   : Нет

Меню
00:00:00.000                             : ru:Chapter 01
00:08:35.097                             : ru:Chapter 02
00:18:09.338                             : ru:Chapter 03
00:28:31.918                             : ru:Chapter 04
00:37:28.454                             : ru:Chapter 05
00:47:46.822                             : ru:Chapter 06
00:59:16.302                             : ru:Chapter 07
01:10:23.761                             : ru:Chapter 08
01:17:08.373                             : ru:Chapter 09
01:31:40.411                             : ru:Chapter 10
01:40:22.516                             : ru:Chapter 11
01:47:39.244                             : ru:Chapter 12
01:57:51.731                             : ru:Chapter 13




Скриншоты:
[+] Всего файлов в раздаче - 1:
Legenda.O.Kolovrate.2017.x264.BDRip.(1080p).OlLanDGroup.mkv9.44 GB

Текущая раздача:
ДатаКомментарии    РазмерПиры
2018-02-25 U Легенда о Коловрате (2017) BDRip 1080p от OlLanDGroup | Лицензия 9.44 GB ↑ 224 ↓ 202

Показать еще раздачи по запросу легенда:
2018-06-10 U Первобытная ярость: Легенда О-Ма / Primal Rage: The Legend of Oh-Mah (2018) WEBRip 720p | GreenРай Studio 2.70 GB ↑ 47 ↓ 33
2018-06-10 U Первобытная ярость: Легенда О-Ма / Primal Rage: The Legend of Oh-Mah (2018) WEBRip 1080p | GreenРай Studio 3.43 GB ↑ 102 ↓ 43
2018-06-10 U Первобытная ярость: Легенда О-Ма / Primal Rage: The Legend of Oh-Mah (2018) WEBRip | GreenРай Studio 1.37 GB ↑ 60 ↓ 46
2018-06-03 U Легенда о демонической кошке / Legend of the Demon Cat / Kûkai / Yao mao zhuan (2017) BDRip AVC от MediaClub | L2 2.59 GB ↑ 139 ↓ 76
2018-05-09 U Легенда - Неоспоримый (2018) MP3 88.08 MB ↑ 201 ↓ 9
2018-05-09 U Первобытная ярость: Легенда О-Ма / Primal Rage: The Legend of Oh-Mah (2018) WEBRip 1080p | L1 3.75 GB ↑ 39 ↓ 34
2018-05-09 U Первобытная ярость: Легенда О-Ма / Primal Rage: The Legend of Oh-Mah (2018) WEBRip | L1 1.23 GB ↑ 233 ↓ 34

Отзывы
Зарегистрируйтесь чтобы добавить комментарий.
Обратная связь
Copyleft ©