↑↓Torrent.by
Поиск
Логин: Регистрация
Пароль: Восстановить пароль
Загрузка...

Легенда о Коловрате (2017) BDRip-AVC от New-Team | Лицензия

Скачать legenda-o-kolovrate-2017-bdrip-avc-ot-new-team-licenziya.torrent
U Магнитная ссылка Размер: 1.46 GB Раздают: 98 Качают: 35 Добавлен: 2018-02-25 08:49:38
Легенда о Коловрате (2017) BDRip-AVC от New-Team | Лицензия

Легенда о Коловрате

«Героем может стать каждый»

Страна: Россия
Жанр:  история, боевик, фэнтези
Год выпуска: 2017
Продолжительность: 01:57:52
Перевод: Не требуется
Субтитры: нет
Оригинальная аудиодорожка: русский

Режиссер: Джаник Файзиев, Иван Шурховецкий

В ролях: Илья Малаков, Александр Цой, Александр Ильин мл., Юлия Хлынина, Тимофей Трибунцев, Алексей Серебряков, Игорь Савочкин, Полина Чернышова, Илья Антоненко, Георгий Пицхелаури, Ольга Дроздова, Мария Фомина

Описание:
XIII век. Русь раздроблена и вот-вот падет на колени перед ханом Золотой Орды Батыем. Испепеляя города и заливая русские земли кровью, захватчики не встречают серьезного сопротивления, и лишь один воин бросает им вызов. Молодой рязанский витязь Евпатий Коловрат возглавляет отряд смельчаков, чтобы отомстить за свою любовь и за свою родину. Его отвага поразит даже Батыя, а его имя навсегда останется в памяти народа. Воин, ставший легендой. Подвиг, сохранившийся в веках.

Релиз:

Автор рипа: stalkerok

Семпл

Качество видео: BDRip-AVC [Легенда о Коловрате (2017) Blu-ray Disc [GER] -BLUEBIRD]
Формат видео: MKV
Видео кодек: AVC
Аудио кодек: AAC
Видео: AVC, 1480 Кбит/сек, 874x366 (2.40:1), 23,976 кадр/сек
Аудио: AAC, 288 Кбит/сек, 48 КГц, 5.1 - русский Blu-ray GER
Навигация по главам: есть


[+] x264/MediaInfo


---[Information] [24.02.2018 20:58:17] x264 [info]: frame I:1422  Avg QP:19.81  size: 43551
---[Information] [24.02.2018 20:58:17] x264 [info]: frame P:40730 Avg QP:22.43  size: 15532
---[Information] [24.02.2018 20:58:17] x264 [info]: frame B:127412 Avg QP:24.83  size:  4823

General
Unique ID                                : 235330227272287138304321609308695467036 (0xB10AF401CA45B1B1B1C08C5FE140941C)
Complete name                            : O:!RipsLegenda o Kolovrate (2017)Legenda.o.Kolovrate.2017.BDRip-AVC.RUS.stalkerok.new-team.mkv
Format                                   : Matroska
Format version                           : Version 4 / Version 2
File size                                : 1.46 GiB
Duration                                 : 1 h 57 min
Overall bit rate                         : 1 771 kb/s
Movie name                               : Легенда о Коловрате (2017) (Rip by stalkerok)
Encoded date                             : UTC 2018-02-24 18:30:35
Writing application                      : mkvmerge v8.6.1 ('Flying') 64bit
Writing library                          : libebml v1.3.3 + libmatroska v1.4.4

Video
ID                                       : 1
Format                                   : AVC
Format/Info                              : Advanced Video Codec
Format profile                           : High@L4.1
Format settings, CABAC                   : Yes
Format settings, ReFrames                : 12 frames
Codec ID                                 : V_MPEG4/ISO/AVC
Duration                                 : 1 h 57 min
Bit rate                                 : 1 481 kb/s
Width                                    : 874 pixels
Height                                   : 366 pixels
Display aspect ratio                     : 2.40:1
Frame rate mode                          : Constant
Frame rate                               : 23.976 (24000/1001) FPS
Color space                              : YUV
Chroma subsampling                       : 4:2:0
Bit depth                                : 8 bits
Scan type                                : Progressive
Bits/(Pixel*Frame)                       : 0.193
Stream size                              : 1.22 GiB (84%)
Title                                    : Легенда о Коловрате (2017) (Rip by stalkerok)
Writing library                          : x264 core 152 r2851kMod ba24899
Encoding settings                        : cabac=1 / ref=12 / deblock=1:-3:-2 / analyse=0x3:0x133 / me=umh / subme=11 / psy=1 / fade_compensate=0.00 / psy_rd=1.00:0.00 / mixed_ref=1 / me_range=32 / chroma_me=1 / trellis=2 / 8x8dct=1 / cqm=0 / deadzone=21,11 / fast_pskip=0 / chroma_qp_offset=-2 / threads=11 / lookahead_threads=2 / sliced_threads=0 / nr=0 / decimate=1 / interlaced=0 / bluray_compat=0 / constrained_intra=0 / bframes=15 / b_pyramid=2 / b_adapt=2 / b_bias=0 / direct=3 / weightb=1 / open_gop=0 / weightp=2 / keyint=240 / keyint_min=23 / scenecut=40 / intra_refresh=0 / rc_lookahead=60 / rc=crf / mbtree=0 / crf=19.8000 / qcomp=0.65 / qpmin=0 / qpmax=69 / qpstep=4 / vbv_maxrate=50000 / vbv_bufsize=62500 / crf_max=0.0 / nal_hrd=none / filler=0 / ip_ratio=1.40 / pb_ratio=1.30 / aq=3:0.95 / zones=162213,169563,q=34
Default                                  : Yes
Forced                                   : No

Audio
ID                                       : 2
Format                                   : AAC
Format/Info                              : Advanced Audio Codec
Format profile                           : LC
Codec ID                                 : A_AAC
Duration                                 : 1 h 57 min
Bit rate                                 : 288 kb/s
Channel(s)                               : 6 channels
Channel positions                        : Front: L C R, Side: L R, LFE
Sampling rate                            : 48.0 kHz
Frame rate                               : 46.875 FPS (1024 spf)
Compression mode                         : Lossy
Delay relative to video                  : 9 ms
Stream size                              : 242 MiB (16%)
Language                                 : Russian
Default                                  : Yes
Forced                                   : No

Menu
00:00:00.000                             : en:Chapter 1
00:08:35.097                             : en:Chapter 2
00:18:09.338                             : en:Chapter 3
00:28:31.918                             : en:Chapter 4
00:37:28.454                             : en:Chapter 5
00:47:46.822                             : en:Chapter 6
00:59:16.302                             : en:Chapter 7
01:10:23.761                             : en:Chapter 8
01:17:08.373                             : en:Chapter 9
01:31:40.411                             : en:Chapter 10
01:40:22.516                             : en:Chapter 11
01:47:39.244                             : en:Chapter 12




Скриншоты:
[+] Всего файлов в раздаче - 1:
Legenda.o.Kolovrate.2017.BDRip-AVC.RUS.stalkerok.new-team.mkv1.46 GB

Текущая раздача:
ДатаКомментарии    РазмерПиры
2018-02-25 U Легенда о Коловрате (2017) BDRip-AVC от New-Team | Лицензия 1.46 GB ↑ 98 ↓ 35

Показать еще раздачи по запросу легенда:
2018-09-04 U Смрадное дыхание: Легенда о Жопороте / Hellitosis: The Legend of Stankmouth (2017) WEBRip | L1 847.30 MB ↑ 121 ↓ 12
2018-07-27 U Легенда о Тиле (1976) DVDRip-AVC от KORSAR 7.69 GB ↑ 37 ↓ 17
2018-07-15 U Большая легенда / Big Legend (2018) WEB-DLRip-AVC от OlLanDGroup | HDRezka Studio 1.46 GB ↑ 109 ↓ 57
2018-07-11 U Большая легенда / Big Legend (2018) WEB-DL 1080p | L2 6.08 GB ↑ 31 ↓ 17
2018-07-10 U Большая легенда / Big Legend (2018) WEBRip 720p | L2 2.12 GB ↑ 57 ↓ 30
2018-07-10 U Большая легенда / Big Legend (2018) WEBRip | L2 1.31 GB ↑ 184 ↓ 64
2018-07-06 U Большая легенда / Big Legend (2018) WEB-DL 1080p | L1 6.36 GB ↑ 72 ↓ 30

Отзывы
Зарегистрируйтесь чтобы добавить комментарий.
Обратная связь
Copyleft ©