↑↓Torrent.by
Поиск
Логин: Регистрация
Пароль: Восстановить пароль
Загрузка...

Город Героев: Новая История / Big Hero 6: The Series [01x01] (2017) WEB-DL 1080p | D

Скачать gorod-geroev-novaya-istoriya-big-hero-6-the-series-01x01-2017-web-dl-1080p-d.torrent
U Магнитная ссылка Размер: 1.69 GB Раздают: 130 Качают: 26 Добавлен: 2018-02-25 08:50:20
Город Героев: Новая История / Big Hero 6: The Series [01x01] (2017) WEB-DL 1080p | D

Название: Город Героев: Новая История
Оригинальное название: Big Hero 6: The Series
Год выхода: 2017
Жанр: Приключения, фантастика, комедия, семейный
Режиссер: Стивен Хеневельд, Бен Джуоно, Николас Филиппи
Роли озвучивали: Димоид Виноградов, Прохор Чеховской, Елена Шульман и другие

О фильме:
Хиро Хамада поступил в Технический университет Сан-Франсокио, где учился его старший брат Тадаши. В первый же день в университете юный герой оказался в лаборатории Тадаши и нашел там микрочип Бэймакса. С помощью этого устройства Хиро надеялся восстановить робота, но его поспешные действия привели к неожиданным последствиям.

Страна: США
Студия: Disney Television Animation, Disney XD
Продолжительность: 00:44:00 - первая серия, ~00:22:00 - остальные серии
Перевод: Дублированный

Файл
Кодек: AVC / AC3
Качество: WEB-DL 1080p
Видео: MPEG4 Video (H264), 1920x1080 (16:9), 23.976fps, 5099 kbps
Звук:
Аудио 1: Dolby AC3 48000Hz stereo 192kbps [Russian]
Аудио 2: Dolby AC3 48000Hz 6ch 384kbps [English] (первая серия)
Субтитры: Английские, отключаемые


[+] Список серий:

01. Baymax Returns (Возвращение Бэймакса)




[+] MediaInfo
General
Unique ID                      : 338748543714552958307782024876507918305 (0xFED898AD6431FD25AA4FE5DC2971EFE1)
Complete name                  : E:VideosBig Hero 6Big Hero 6 - Season 1 (RU 1080p)Big.Hero.6.The.Series.S01E01.Baymax.Returns.1080p.WEB-DL.RUS.ENG.mkv
Format                         : Matroska
Format version                 : Version 4 / Version 2
File size                      : 1.69 GiB
Duration                       : 42 min 41 s
Overall bit rate               : 5 677 kb/s
Encoded date                   : UTC 2018-02-23 20:17:32
Writing application            : mkvmerge v19.0.0 ('Brave Captain') 64-bit
Writing library                : libebml v1.3.5 + libmatroska v1.4.8
Video
ID                             : 1
Format                         : AVC
Format/Info                    : Advanced Video Codec
Format profile                 : High@L4
Format settings                : CABAC / 4 Ref Frames
Format settings, CABAC         : Yes
Format settings, ReFrames      : 4 frames
Codec ID                       : V_MPEG4/ISO/AVC
Duration                       : 42 min 41 s
Bit rate                       : 5 099 kb/s
Width                          : 1 920 pixels
Height                         : 1 080 pixels
Display aspect ratio           : 16:9
Frame rate mode                : Constant
Frame rate                     : 23.976 FPS
Color space                    : YUV
Chroma subsampling             : 4:2:0
Bit depth                      : 8 bits
Scan type                      : Progressive
Bits/(Pixel*Frame)             : 0.103
Stream size                    : 1.52 GiB (90%)
Language                       : English
Default                        : Yes
Forced                         : No
Color range                    : Limited
Color primaries                : BT.709
Transfer characteristics       : BT.709
Matrix coefficients            : BT.709
Audio #1
ID                             : 2
Format                         : AC-3
Format/Info                    : Audio Coding 3
Codec ID                       : A_AC3
Duration                       : 42 min 41 s
Bit rate mode                  : Constant
Bit rate                       : 192 kb/s
Channel(s)                     : 2 channels
Channel positions              : Front: L R
Sampling rate                  : 48.0 kHz
Frame rate                     : 31.250 FPS (1536 SPF)
Bit depth                      : 16 bits
Compression mode               : Lossy
Stream size                    : 58.6 MiB (3%)
Language                       : Russian
Service kind                   : Complete Main
Default                        : Yes
Forced                         : No
Audio #2
ID                             : 3
Format                         : AC-3
Format/Info                    : Audio Coding 3
Codec ID                       : A_AC3
Duration                       : 42 min 41 s
Bit rate mode                  : Constant
Bit rate                       : 384 kb/s
Channel(s)                     : 6 channels
Channel positions              : Front: L C R, Side: L R, LFE
Sampling rate                  : 48.0 kHz
Frame rate                     : 31.250 FPS (1536 SPF)
Bit depth                      : 16 bits
Compression mode               : Lossy
Stream size                    : 117 MiB (7%)
Language                       : English
Service kind                   : Complete Main
Default                        : No
Forced                         : No
Text
ID                             : 4
Format                         : UTF-8
Codec ID                       : S_TEXT/UTF8
Codec ID/Info                  : UTF-8 Plain Text
Duration                       : 42 min 14 s
Bit rate                       : 83 b/s
Count of elements              : 886
Stream size                    : 25.8 KiB (0%)
Language                       : English
Default                        : No
Forced                         : No



Скриншоты:
[+] Всего файлов в раздаче - 1:
Big.Hero.6.The.Series.S01E01.Baymax.Returns.1080p.WEB-DL.RUS.ENG.mkv1.69 GB

Текущая раздача:
ДатаКомментарии    РазмерПиры
2018-02-25 U Город Героев: Новая История / Big Hero 6: The Series [01x01] (2017) WEB-DL 1080p | D 1.69 GB ↑ 130 ↓ 26

Показать еще раздачи по запросу город:
2018-06-12 U Париж. Город Zомби / The Night Eats the World / La nuit a dévoré le monde (2018) HDRip | Android | L1 694.97 MB ↑ 55 ↓ 28
2018-06-12 U Париж. Город Zомби / The Night Eats the World / La nuit a dévoré le monde (2018) BDRip 1080p | BadBajo 7.84 GB ↑ 186 ↓ 125
2018-06-12 U Париж. Город Zомби / The Night Eats the World / La nuit a dévoré le monde (2018) BDRip от MegaPeer | L1 1.46 GB ↑ 128 ↓ 77
2018-05-30 U Ташкент - город хлебный (1967) VHSRip | Полная версия 1.46 GB ↑ 62 ↓ 27
2018-04-27 U Город Эмбер: Побег / City of Ember (2008) BDRip 720p от Leonardo | D 3.13 GB ↑ 56 ↓ 29
2018-04-13 U Павел Корнев - Последний город (2018) MP3 565.02 MB ↑ 79 ↓ 17
2018-04-11 U Город и город / The City and the City [S01] (2018) WEBRip 720p | Profix Media 4.07 GB ↑ 90 ↓ 11

Отзывы
Зарегистрируйтесь чтобы добавить комментарий.
Обратная связь
Copyleft ©