↑↓Torrent.by
Поиск
Логин: Регистрация
Пароль: Восстановить пароль
Загрузка...

Легенда о Коловрате (2017) BDRip-AVC от SuperMin | Лицензия

Скачать legenda-o-kolovrate-2017-bdrip-avc-ot-supermin-licenziya.torrent
U Магнитная ссылка Размер: 2.29 GB Раздают: 151 Качают: 31 Добавлен: 2018-02-25 12:21:36
Легенда о Коловрате (2017) BDRip-AVC от SuperMin | Лицензия

Название: Легенда о Коловрате  
Жанр: История, боевик, фэнтези
Режиссер: Джаник Файзиев, Иван Шурховецкий
В ролях: Илья Малаков, Полина Чернышова, Алексей Серебряков, Александр Ильин мл., Игорь Савочкин, Тимофей Трибунцев, Александр Цой, Юлия Хлынина, Андрей Бурковский, Виктор Проскурин

О фильме:
XIII век. Русь раздроблена и вот-вот падет на колени перед ханом Золотой Орды Батыем. Испепеляя города и заливая русские земли кровью, захватчики не встречают серьезного сопротивления, и лишь один воин бросает им вызов. Молодой рязанский витязь Евпатий Коловрат возглавляет отряд смельчаков, чтобы отомстить за свою любовь и за свою родину. Его отвага поразит даже Батыя, а его имя навсегда останется в памяти народа. Воин, ставший легендой. Подвиг, сохранившийся в веках.

Страна: Россия
Студия: Централ Партнершип, Киностудия КИТ, Продюсерский центр ИВАН
Продолжительность: 01:57:52
Перевод: не требуется

Файл
Кодек: H.264
Качество: BDRip-AVC от SuperMin
Видео: 1056х440 (2.40:1), 2347 Kbps, 23.976 fps
Звук: Русский (AC-3, 6ch, 384 kbps)


[+] MI

General
Unique ID                   : 196262171546275841845184524637644122630 (0x93A6B824E7FBD97DAA9203558AC9EA06)
Complete name               : F:Легенда о Коловрате.mkv
Format                      : Matroska
Format version              : Version 2
File size                   : 2.29 GiB
Duration                    : 1 h 57 min
Overall bit rate            : 2 787 kb/s
Encoded date                : UTC 2018-02-24 21:42:02
Writing application         : mkvmerge v7.8.0 ('River Man') 32bit built on Apr  3 2015 12:11:22
Writing library             : libebml v1.3.1 + libmatroska v1.4.2

Video
ID                          : 1
Format                      : AVC
Format/Info                 : Advanced Video Codec
Format profile              : High@L4.1
Format settings, CABAC      : Yes
Format settings, ReFrames   : 12 frames
Codec ID                    : V_MPEG4/ISO/AVC
Duration                    : 1 h 57 min
Bit rate                    : 2 347 kb/s
Width                       : 1 056 pixels
Height                      : 440 pixels
Display aspect ratio        : 2.40:1
Frame rate mode             : Constant
Frame rate                  : 23.976 (24000/1001) FPS
Color space                 : YUV
Chroma subsampling          : 4:2:0
Bit depth                   : 8 bits
Scan type                   : Progressive
Bits/(Pixel*Frame)          : 0.211
Stream size                 : 1.93 GiB (84%)
Writing library             : x264 core 146 r2538 121396c
Encoding settings           : cabac=1 / ref=12 / deblock=1:-3:-3 / analyse=0x3:0x113 / me=umh / subme=10 / psy=1 / psy_rd=1.00:0.10 / mixed_ref=1 / me_range=32 / chroma_me=1 / trellis=2 / 8x8dct=1 / cqm=0 / deadzone=21,11 / fast_pskip=0 / chroma_qp_offset=-3 / threads=12 / lookahead_threads=2 / sliced_threads=0 / nr=0 / decimate=1 / interlaced=0 / bluray_compat=0 / constrained_intra=0 / bframes=8 / b_pyramid=2 / b_adapt=2 / b_bias=0 / direct=1 / weightb=1 / open_gop=0 / weightp=2 / keyint=240 / keyint_min=23 / scenecut=40 / intra_refresh=0 / rc=crf / mbtree=0 / crf=20.0 / qcomp=0.70 / qpmin=0 / qpmax=69 / qpstep=4 / ip_ratio=1.40 / pb_ratio=1.30 / aq=1:1.00
Default                     : Yes
Forced                      : No

Audio
ID                          : 2
Format                      : AC-3
Format/Info                 : Audio Coding 3
Mode extension              : CM (complete main)
Format settings, Endianness : Big
Codec ID                    : A_AC3
Duration                    : 1 h 57 min
Bit rate mode               : Constant
Bit rate                    : 384 kb/s
Channel(s)                  : 6 channels
Channel positions           : Front: L C R, Side: L R, LFE
Sampling rate               : 48.0 kHz
Frame rate                  : 31.250 FPS (1536 spf)
Bit depth                   : 16 bits
Compression mode            : Lossy
Stream size                 : 324 MiB (14%)
Default                     : Yes
Forced                      : No



Скриншоты:
[+] Всего файлов в раздаче - 1:
Легенда о Коловрате.mkv2.29 GB

Текущая раздача:
ДатаКомментарии    РазмерПиры
2018-02-25 U Легенда о Коловрате (2017) BDRip-AVC от SuperMin | Лицензия 2.29 GB ↑ 151 ↓ 31

Показать еще раздачи по запросу легенда:
2018-09-04 U Смрадное дыхание: Легенда о Жопороте / Hellitosis: The Legend of Stankmouth (2017) WEBRip | L1 847.30 MB ↑ 121 ↓ 12
2018-07-27 U Легенда о Тиле (1976) DVDRip-AVC от KORSAR 7.69 GB ↑ 37 ↓ 17
2018-07-15 U Большая легенда / Big Legend (2018) WEB-DLRip-AVC от OlLanDGroup | HDRezka Studio 1.46 GB ↑ 109 ↓ 57
2018-07-11 U Большая легенда / Big Legend (2018) WEB-DL 1080p | L2 6.08 GB ↑ 31 ↓ 17
2018-07-10 U Большая легенда / Big Legend (2018) WEBRip 720p | L2 2.12 GB ↑ 57 ↓ 30
2018-07-10 U Большая легенда / Big Legend (2018) WEBRip | L2 1.31 GB ↑ 184 ↓ 64
2018-07-06 U Большая легенда / Big Legend (2018) WEB-DL 1080p | L1 6.36 GB ↑ 72 ↓ 30

Отзывы
Зарегистрируйтесь чтобы добавить комментарий.
Обратная связь
Copyleft ©