↑↓Torrent.by
Поиск
Логин: Регистрация
Пароль: Восстановить пароль
Загрузка...

Экстрасенсы. Битва сильнейших [10x01-02] (2018) HDTVRip 720p

Скачать ekstrasensy-bitva-silneyshih-10x01-02-2018-hdtvrip-720p.torrent
U Магнитная ссылка Размер: 3.66 GB Раздают: 114 Качают: 137 Добавлен: 2018-02-25 12:21:48
Экстрасенсы. Битва сильнейших [10x01-02] (2018) HDTVRip 720p

Название: Экстрасенсы. Битва сильнейших
Год выхода: 2018
Жанр: Паранормальное шоу, экстрасенсы, мистика
Выпущено: Россия, ТНТ
Перевод: Не требуется
Продолжительность: ~ 01:11:26
Режиссер: Федор Торстенсен, Ольга Шмидт, Олег Чаурс
В ролях: Александр Шепс, Виктория Райдос, Елена Голунова, Мэрилин Керро, Свами Даши и др.

О фильме: Лучшие участники шоу "Битва экстрасенсов" ищут пропавших без вести, расследуют загадочные убийства и выясняют истинные мотивы преступлений. Когда полиция бессильна, родственники жертв в отчаянии, а самые опытные следователи заходят в тупик, за дело берутся люди, чьи сверхспособности позволяют пролить свет на тайны прошлого, настоящего и будущего.

Файл
Качество: HDTVRip 720p
Видео: MPEG-4 AVC, 1280x720, ~3500 kbps, 25,000 fps
Звук: Русский: AAC, 2 ch, 48 kHz, 192 kbps
[+] MI
General
Unique ID                   : 222983714374760170016074611037964549523 (0xA7C119EC56E77AD98BB5B005B2B33D93)
Complete name               : E:UttorentEkstrasensy�1.mkv
Format                      : Matroska
Format version              : Version 4 / Version 2
File size                   : 1.84 GiB
Duration                    : 1 h 11 min
Overall bit rate            : 3 691 kb/s
Encoded date                : UTC 2018-02-17 20:57:56
Writing application         : mkvmerge v9.5.0 ('Quiet Fire') 64bit
Writing library             : libebml v1.3.4 + libmatroska v1.4.5

Video
ID                          : 1
Format                      : AVC
Format/Info                 : Advanced Video Codec
Format profile              : High@L4.1
Format settings             : CABAC / 5 Ref Frames
Format settings, CABAC      : Yes
Format settings, ReFrames   : 5 frames
Codec ID                    : V_MPEG4/ISO/AVC
Duration                    : 1 h 11 min
Bit rate                    : 3 500 kb/s
Width                       : 1 280 pixels
Height                      : 720 pixels
Display aspect ratio        : 16:9
Frame rate mode             : Constant
Frame rate                  : 25.000 FPS
Color space                 : YUV
Chroma subsampling          : 4:2:0
Bit depth                   : 8 bits
Scan type                   : Progressive
Bits/(Pixel*Frame)          : 0.152
Stream size                 : 1.75 GiB (95%)
Writing library             : x264 core 155 r2893
Encoding settings           : cabac=1 / ref=5 / deblock=1:3:2 / analyse=0x3:0x113 / me=hex / subme=7 / psy=1 / psy_rd=1.00:0.15 / mixed_ref=0 / me_range=16 / chroma_me=1 / trellis=2 / 8x8dct=1 / cqm=0 / deadzone=21,11 / fast_pskip=1 / chroma_qp_offset=-3 / threads=12 / lookahead_threads=2 / sliced_threads=0 / nr=0 / decimate=1 / interlaced=0 / bluray_compat=0 / constrained_intra=0 / bframes=2 / b_pyramid=0 / b_adapt=2 / b_bias=0 / direct=3 / weightb=0 / open_gop=0 / weightp=2 / keyint=250 / keyint_min=25 / scenecut=40 / intra_refresh=0 / rc_lookahead=40 / rc=2pass / mbtree=1 / bitrate=3500 / ratetol=1.0 / qcomp=0.60 / qpmin=10 / qpmax=69 / qpstep=4 / cplxblur=20.0 / qblur=0.5 / vbv_maxrate=10000 / vbv_bufsize=24000 / nal_hrd=none / filler=0 / ip_ratio=1.40 / aq=3:1.30
Language                    : English
Default                     : Yes
Forced                      : No

Audio
ID                          : 2
Format                      : AAC
Format/Info                 : Advanced Audio Codec
Format profile              : LC
Codec ID                    : A_AAC-2
Duration                    : 1 h 11 min
Bit rate                    : 192 kb/s
Channel(s)                  : 2 channels
Channel positions           : Front: L R
Sampling rate               : 48.0 kHz
Frame rate                  : 46.875 FPS (1024 SPF)
Compression mode            : Lossy
Stream size                 : 96.8 MiB (5%)
Language                    : English
Default                     : Yes
Forced                      : No




Скриншоты:
[+] Всего файлов в раздаче - 2:
01.mkv1.84 GB
02.mkv1.82 GB

Текущая раздача:
ДатаКомментарии    РазмерПиры
2018-02-25 U Экстрасенсы. Битва сильнейших [10x01-02] (2018) HDTVRip 720p 3.66 GB ↑ 114 ↓ 137

Показать еще раздачи по запросу экстрасенсы:
2018-04-01 U Экстрасенсы. Битва сильнейших [10x01-07] (2018) HDTVRip 720p 13.00 GB ↑ 49 ↓ 248
2018-03-26 U Экстрасенсы. Битва сильнейших [10x01-06] (2018) HDTVRip 720p 1К11.23 GB ↑ 52 ↓ 98
2018-03-19 U Экстрасенсы. Битва сильнейших [10x01-05] (2018) HDTVRip 720p 9.40 GB ↑ 43 ↓ 101
2018-03-04 U Экстрасенсы. Битва сильнейших [10x01-03] (2018) HDTVRip 720p 5.49 GB ↑ 175 ↓ 259
2018-02-18 U Экстрасенсы ведут расследование [10х01] (2018) HDTV 1080p от Generalfilm 3.69 GB ↑ 160 ↓ 22
2018-02-18 U Экстрасенсы. Битва сильнейших. Выпуск 17.02 (2018) HDTVRip 720p 1.84 GB ↑ 118 ↓ 73
2016-12-08 U Экстрасенсы / Solace (2015) BDRip 720p от Scarabey | Лицензия 2.74 GB ↑ 79 ↓ 30

Отзывы
Зарегистрируйтесь чтобы добавить комментарий.
Обратная связь
Copyleft ©