↑↓Torrent.by
Поиск
Логин: Регистрация
Пароль: Восстановить пароль
Загрузка...

Легенда о Коловрате (2017) BDRip-AVC от New-Team | Лицензия

Скачать legenda-o-kolovrate-2017-bdrip-avc-ot-new-team-licenziya.torrent
U Магнитная ссылка Размер: 2.91 GB Раздают: 349 Качают: 90 Добавлен: 2018-02-25 15:13:30
Легенда о Коловрате (2017) BDRip-AVC от New-Team | Лицензия

Легенда о Коловрате

«Героем может стать каждый»

Страна: Россия
Жанр:  история, боевик, фэнтези
Год выпуска: 2017
Продолжительность: 01:57:52

Перевод: Не требуется
Субтитры: русские (форсированные)
Оригинальная аудиодорожка: русский

Режиссер: Джаник Файзиев, Иван Шурховецкий

В ролях: Илья Малаков, Александр Цой, Александр Ильин мл., Юлия Хлынина, Тимофей Трибунцев, Алексей Серебряков, Игорь Савочкин, Полина Чернышова, Илья Антоненко, Георгий Пицхелаури, Ольга Дроздова, Мария Фомина

Описание:
XIII век. Русь раздроблена и вот-вот падет на колени перед ханом Золотой Орды Батыем. Испепеляя города и заливая русские земли кровью, захватчики не встречают серьезного сопротивления, и лишь один воин бросает им вызов. Молодой рязанский витязь Евпатий Коловрат возглавляет отряд смельчаков, чтобы отомстить за свою любовь и за свою родину. Его отвага поразит даже Батыя, а его имя навсегда останется в памяти народа. Воин, ставший легендой. Подвиг, сохранившийся в веках.

Релиз:

Автор рипа: stalkerok

Семпл

Качество видео: BDRip-AVC [Легенда о Коловрате (2017) Blu-ray Disc [GER] -BLUEBIRD]
Формат видео: MKV
Видео кодек: AVC
Аудио кодек: AC3
Видео: AVC, 3082 Кбит/сек, 1152x482 (2.40:1), 23,976 кадр/сек
Аудио: AC3, 448 Кбит/сек, 48 КГц, 5.1 - русский Blu-ray GER
Навигация по главам: есть


[+] x264/MediaInfo


---[Information] [25.02.2018 2:30:21] x264 [info]: frame I:1364  Avg QP:18.16  size: 79290
---[Information] [25.02.2018 2:30:21] x264 [info]: frame P:41169 Avg QP:20.58  size: 31040
---[Information] [25.02.2018 2:30:21] x264 [info]: frame B:127031 Avg QP:23.06  size: 10537

Общее
Уникальный идентификатор                 : 253426588416297769526563349429067896201 (0xBEA82F7F1F59377A8C2819FDA31AD589)
Полное имя                               : O:!RipsLegenda o Kolovrate (2017)Legenda.o.Kolovrate.2017.BDRip-AVC.RUS..stalkerok.new-team.mkv
Формат                                   : Matroska
Версия формата                           : Version 4 / Version 2
Размер файла                             : 2,91 Гбайт
Продолжительность                        : 1 ч. 57 м.
Общий поток                              : 3532 Кбит/сек
Название фильма                          : Легенда о Коловрате (2017) (Rip by stalkerok)
Дата кодирования                         : UTC 2018-02-25 07:59:59
Программа кодирования                    : mkvmerge v8.6.1 ('Flying') 64bit
Библиотека кодирования                   : libebml v1.3.3 + libmatroska v1.4.4

Видео
Идентификатор                            : 1
Формат                                   : AVC
Формат/Информация                        : Advanced Video Codec
Профиль формата                          : High@L4.1
Параметр CABAC формата                   : Да
Параметр ReFrames формата                : 12 кадров
Идентификатор кодека                     : V_MPEG4/ISO/AVC
Продолжительность                        : 1 ч. 57 м.
Битрейт                                  : 3082 Кбит/сек
Ширина                                   : 1152 пикселя
Высота                                   : 482 пикселя
Соотношение сторон                       : 2,40:1
Режим частоты кадров                     : Постоянный
Частота кадров                           : 23,976 (24000/1001) кадра/сек
Цветовое пространство                    : YUV
Субдискретизация насыщенности            : 4:2:0
Битовая глубина                          : 8 бит
Тип развёртки                            : Прогрессивная
Бит/(Пиксели*Кадры)                      : 0.231
Размер потока                            : 2,54 Гбайт (87%)
Заголовок                                : Легенда о Коловрате (2017) (Rip by stalkerok)
Библиотека кодирования                   : x264 core 152 r2851kMod ba24899
Настройки программы                      : cabac=1 / ref=12 / deblock=1:-3:-2 / analyse=0x3:0x133 / me=umh / subme=11 / psy=1 / fade_compensate=0.00 / psy_rd=1.00:0.00 / mixed_ref=1 / me_range=32 / chroma_me=1 / trellis=2 / 8x8dct=1 / cqm=0 / deadzone=21,11 / fast_pskip=0 / chroma_qp_offset=-2 / threads=12 / lookahead_threads=3 / sliced_threads=0 / nr=0 / decimate=1 / interlaced=0 / bluray_compat=0 / constrained_intra=0 / bframes=14 / b_pyramid=2 / b_adapt=2 / b_bias=0 / direct=3 / weightb=1 / open_gop=0 / weightp=2 / keyint=240 / keyint_min=23 / scenecut=40 / intra_refresh=0 / rc_lookahead=60 / rc=crf / mbtree=0 / crf=18.5000 / qcomp=0.65 / qpmin=0 / qpmax=69 / qpstep=4 / vbv_maxrate=50000 / vbv_bufsize=62500 / crf_max=0.0 / nal_hrd=none / filler=0 / ip_ratio=1.40 / pb_ratio=1.30 / aq=3:0.87 / zones=162213,169563,q=32
Default                                  : Да
Forced                                   : Нет

Аудио
Идентификатор                            : 2
Формат                                   : AC-3
Формат/Информация                        : Audio Coding 3
Расширение режима                        : CM (complete main)
Параметр Endianness формата              : Big
Идентификатор кодека                     : A_AC3
Продолжительность                        : 1 ч. 57 м.
Вид битрейта                             : Постоянный
Битрейт                                  : 448 Кбит/сек
Каналы                                   : 6 каналов
Расположение каналов                     : Front: L C R, Side: L R, LFE
Частота                                  : 48,0 КГц
Частота кадров                           : 31,250 кадров/сек (1536 spf)
Метод сжатия                             : С потерями
Размер потока                            : 378 Мбайт (13%)
Язык                                     : Russian
Default                                  : Да
Forced                                   : Нет

Текст
Идентификатор                            : 3
Формат                                   : UTF-8
Идентификатор кодека                     : S_TEXT/UTF8
Идентификатор кодека/Информация          : UTF-8 Plain Text
Продолжительность                        : 1 ч. 43 м.
Битрейт                                  : 0 бит/сек
Count of elements                        : 2
Размер потока                            : 57,0 байт (0%)
Заголовок                                : Forced
Язык                                     : Russian
Default                                  : Да
Forced                                   : Нет

Меню
00:00:00.000                             : en:Chapter 1
00:08:35.097                             : en:Chapter 2
00:18:09.338                             : en:Chapter 3
00:28:31.918                             : en:Chapter 4
00:37:28.454                             : en:Chapter 5
00:47:46.822                             : en:Chapter 6
00:59:16.302                             : en:Chapter 7
01:10:23.761                             : en:Chapter 8
01:17:08.373                             : en:Chapter 9
01:31:40.411                             : en:Chapter 10
01:40:22.516                             : en:Chapter 11
01:47:39.244                             : en:Chapter 12




Скриншоты:
[+] Всего файлов в раздаче - 1:
Legenda.o.Kolovrate.2017.BDRip-AVC.RUS..stalkerok.new-team.mkv2.91 GB

Текущая раздача:
ДатаКомментарии    РазмерПиры
2018-02-25 U Легенда о Коловрате (2017) BDRip-AVC от New-Team | Лицензия 2.91 GB ↑ 349 ↓ 90

Показать еще раздачи по запросу легенда:
2018-09-04 U Смрадное дыхание: Легенда о Жопороте / Hellitosis: The Legend of Stankmouth (2017) WEBRip | L1 847.30 MB ↑ 121 ↓ 12
2018-07-27 U Легенда о Тиле (1976) DVDRip-AVC от KORSAR 7.69 GB ↑ 37 ↓ 17
2018-07-15 U Большая легенда / Big Legend (2018) WEB-DLRip-AVC от OlLanDGroup | HDRezka Studio 1.46 GB ↑ 109 ↓ 57
2018-07-11 U Большая легенда / Big Legend (2018) WEB-DL 1080p | L2 6.08 GB ↑ 31 ↓ 17
2018-07-10 U Большая легенда / Big Legend (2018) WEBRip 720p | L2 2.12 GB ↑ 57 ↓ 30
2018-07-10 U Большая легенда / Big Legend (2018) WEBRip | L2 1.31 GB ↑ 184 ↓ 64
2018-07-06 U Большая легенда / Big Legend (2018) WEB-DL 1080p | L1 6.36 GB ↑ 72 ↓ 30

Отзывы
Зарегистрируйтесь чтобы добавить комментарий.
Обратная связь
Copyleft ©