↑↓Torrent.by
Поиск
Логин: Регистрация
Пароль: Восстановить пароль
Загрузка...

Отставник. Позывной «бродяга» (2017) WEB-DLRip-AVC от New-Team

Скачать otstavnik-pozyvnoy-brodyaga-2017-web-dlrip-avc-ot-new-team.torrent
U Магнитная ссылка Размер: 1.46 GB Раздают: 127 Качают: 66 Добавлен: 2018-02-25 19:34:06
Отставник. Позывной «бродяга» (2017) WEB-DLRip-AVC от New-Team

Отставник. Позывной «бродяга»

Страна: Россия
Жанр:  боевик
Год выпуска: 2017
Продолжительность: 00:48:19+00:48:23 (01:36:42)

Перевод: Не требуется
Субтитры: нет
Оригинальная аудиодорожка: русский

Режиссер: Александр Якимчук

В ролях: Игорь Бочкин, Анна Табанина, Леонид Ворон, Александр Аравушкин, Алексей Байдаков, Роман Агеев, Екатерина Кукуй, Владимир Петров, Артур Харитоненко

Описание:
Главный герой - подполковник на пенсии Юрий Жуковский, который живёт одинокой холостяцкой жизнью. Неожиданно её однообразие рушится, когда Жуковский встречается с бывшим начальником - генералом Терентьевым. Именно он отправляет бывшего командира спецназа в поездку в военную часть районного города Зареченска. Там ему предстоит установить причины трагедии - побега и смерти рядового солдата. Бывший полковник идёт наперекор мнению командования и комиссии, начиная собственное расследование против криминального бизнеса. Жуковский выясняет истинные мотивы побега солдата с помощью его невесты, обнаружив спрятанный телефон.

Автор рипа: stalkerok

Семпл

Качество видео: WEB-DLRip-AVC [WEB-DL.(1080p).Nikolspup]
Формат видео: MKV
Видео кодек: AVC
Аудио кодек: AC3
Видео: AVC, 1968 Кбит/сек, 1024x576 (16:9), 25 кадр/сек
Аудио: AC3, 192 Кбит/сек, 48 КГц, 2.0 - русский


[+] x264/MediaInfo

1
---[Information] [25.02.2018 16:34:55] x264 [info]: frame I:505   Avg QP:16.17  size: 59595
---[Information] [25.02.2018 16:34:55] x264 [info]: frame P:17750 Avg QP:19.88  size: 21202
---[Information] [25.02.2018 16:34:55] x264 [info]: frame B:54234 Avg QP:22.13  size:  5638

2
---[Information] [25.02.2018 18:33:13] x264 [info]: frame I:508   Avg QP:18.46  size: 57860
---[Information] [25.02.2018 18:33:13] x264 [info]: frame P:21754 Avg QP:22.82  size: 18824
---[Information] [25.02.2018 18:33:13] x264 [info]: frame B:50320 Avg QP:24.51  size:  5431

Общее
Уникальный идентификатор                 : 186885714929355265043051938334776331389 (0x8C98E124086298E882247CB926FD8C7D)
Полное имя                               : O:!RipsOtstavnikOtstavnik.Pozyvnoj.Brodjaga.2017.WEB-DLRip-AVC.stalkerok.new-teamOtstavnik.Pozyvnoj.Brodjaga.2017.WEB-DLRip-AVC.e01.rus.stalkerok.new-team.mkv
Формат                                   : Matroska
Версия формата                           : Version 4 / Version 2
Размер файла                             : 746 Мбайт
Продолжительность                        : 48 м.
Общий поток                              : 2159 Кбит/сек
Название фильма                          : Отставник. Позывной «бродяга» (2017) (Rip by stalkerok)
Дата кодирования                         : UTC 2018-02-25 13:55:19
Программа кодирования                    : mkvmerge v8.6.1 ('Flying') 64bit
Библиотека кодирования                   : libebml v1.3.3 + libmatroska v1.4.4

Видео
Идентификатор                            : 1
Формат                                   : AVC
Формат/Информация                        : Advanced Video Codec
Профиль формата                          : High@L4.1
Параметр CABAC формата                   : Да
Параметр ReFrames формата                : 12 кадров
Идентификатор кодека                     : V_MPEG4/ISO/AVC
Продолжительность                        : 48 м.
Битрейт                                  : 1968 Кбит/сек
Ширина                                   : 1024 пикселя
Высота                                   : 576 пикселей
Соотношение сторон                       : 16:9
Режим частоты кадров                     : Постоянный
Частота кадров                           : 25,000 кадров/сек
Цветовое пространство                    : YUV
Субдискретизация насыщенности            : 4:2:0
Битовая глубина                          : 8 бит
Тип развёртки                            : Прогрессивная
Бит/(Пиксели*Кадры)                      : 0.133
Размер потока                            : 679 Мбайт (91%)
Заголовок                                : Отставник. Позывной «бродяга» (2017) (Rip by stalkerok)
Библиотека кодирования                   : x264 core 152 r2851kMod ba24899
Настройки программы                      : cabac=1 / ref=12 / deblock=1:-3:-2 / analyse=0x3:0x133 / me=umh / subme=11 / psy=1 / fade_compensate=0.00 / psy_rd=1.00:0.00 / mixed_ref=1 / me_range=32 / chroma_me=1 / trellis=2 / 8x8dct=1 / cqm=0 / deadzone=21,11 / fast_pskip=0 / chroma_qp_offset=-2 / threads=12 / lookahead_threads=3 / sliced_threads=0 / nr=0 / decimate=0 / interlaced=0 / bluray_compat=0 / constrained_intra=0 / bframes=14 / b_pyramid=2 / b_adapt=2 / b_bias=0 / direct=3 / weightb=1 / open_gop=0 / weightp=2 / keyint=250 / keyint_min=25 / scenecut=40 / intra_refresh=0 / rc_lookahead=60 / rc=2pass / mbtree=0 / bitrate=1968 / ratetol=1.0 / qcomp=0.65 / qpmin=0 / qpmax=69 / qpstep=4 / cplxblur=20.0 / qblur=0.5 / vbv_maxrate=50000 / vbv_bufsize=62500 / nal_hrd=none / filler=0 / ip_ratio=1.40 / pb_ratio=1.30 / aq=3:0.90
Default                                  : Да
Forced                                   : Нет

Аудио
Идентификатор                            : 2
Формат                                   : AC-3
Формат/Информация                        : Audio Coding 3
Расширение режима                        : CM (complete main)
Параметр Endianness формата              : Big
Идентификатор кодека                     : A_AC3
Продолжительность                        : 48 м.
Вид битрейта                             : Постоянный
Битрейт                                  : 192 Кбит/сек
Каналы                                   : 2 канала
Расположение каналов                     : Front: L R
Частота                                  : 48,0 КГц
Частота кадров                           : 31,250 кадров/сек (1536 spf)
Метод сжатия                             : С потерями
Размер потока                            : 66,4 Мбайт (9%)
Язык                                     : Russian
Default                                  : Да
Forced                                   : Нет

Общее
Уникальный идентификатор                 : 203467350381549671940810432785259664681 (0x991262E3474FC44F815661113D4B9529)
Полное имя                               : O:!RipsOtstavnikOtstavnik.Pozyvnoj.Brodjaga.2017.WEB-DLRip-AVC.stalkerok.new-teamOtstavnik.Pozyvnoj.Brodjaga.2017.WEB-DLRip-AVC.e02.rus.stalkerok.new-team.mkv
Формат                                   : Matroska
Версия формата                           : Version 4 / Version 2
Размер файла                             : 746 Мбайт
Продолжительность                        : 48 м.
Общий поток                              : 2156 Кбит/сек
Название фильма                          : Отставник. Позывной «бродяга» (2017) (Rip by stalkerok)
Дата кодирования                         : UTC 2018-02-25 15:39:09
Программа кодирования                    : mkvmerge v8.6.1 ('Flying') 64bit
Библиотека кодирования                   : libebml v1.3.3 + libmatroska v1.4.4

Видео
Идентификатор                            : 1
Формат                                   : AVC
Формат/Информация                        : Advanced Video Codec
Профиль формата                          : High@L4.1
Параметр CABAC формата                   : Да
Параметр ReFrames формата                : 12 кадров
Идентификатор кодека                     : V_MPEG4/ISO/AVC
Продолжительность                        : 48 м.
Битрейт                                  : 1965 Кбит/сек
Ширина                                   : 1024 пикселя
Высота                                   : 576 пикселей
Соотношение сторон                       : 16:9
Режим частоты кадров                     : Постоянный
Частота кадров                           : 25,000 кадров/сек
Цветовое пространство                    : YUV
Субдискретизация насыщенности            : 4:2:0
Битовая глубина                          : 8 бит
Тип развёртки                            : Прогрессивная
Бит/(Пиксели*Кадры)                      : 0.133
Размер потока                            : 679 Мбайт (91%)
Заголовок                                : Отставник. Позывной «бродяга» (2017) (Rip by stalkerok)
Библиотека кодирования                   : x264 core 152 r2851kMod ba24899
Настройки программы                      : cabac=1 / ref=12 / deblock=1:-3:-2 / analyse=0x3:0x133 / me=umh / subme=11 / psy=1 / fade_compensate=0.00 / psy_rd=1.00:0.00 / mixed_ref=1 / me_range=32 / chroma_me=1 / trellis=2 / 8x8dct=1 / cqm=0 / deadzone=21,11 / fast_pskip=0 / chroma_qp_offset=-2 / threads=12 / lookahead_threads=3 / sliced_threads=0 / nr=0 / decimate=0 / interlaced=0 / bluray_compat=0 / constrained_intra=0 / bframes=14 / b_pyramid=2 / b_adapt=2 / b_bias=0 / direct=3 / weightb=1 / open_gop=0 / weightp=2 / keyint=250 / keyint_min=25 / scenecut=40 / intra_refresh=0 / rc_lookahead=60 / rc=2pass / mbtree=0 / bitrate=1965 / ratetol=1.0 / qcomp=0.65 / qpmin=0 / qpmax=69 / qpstep=4 / cplxblur=20.0 / qblur=0.5 / vbv_maxrate=50000 / vbv_bufsize=62500 / nal_hrd=none / filler=0 / ip_ratio=1.40 / pb_ratio=1.30 / aq=3:0.90
Default                                  : Да
Forced                                   : Нет

Аудио
Идентификатор                            : 2
Формат                                   : AC-3
Формат/Информация                        : Audio Coding 3
Расширение режима                        : CM (complete main)
Параметр Endianness формата              : Big
Идентификатор кодека                     : A_AC3
Продолжительность                        : 48 м.
Вид битрейта                             : Постоянный
Битрейт                                  : 192 Кбит/сек
Каналы                                   : 2 канала
Расположение каналов                     : Front: L R
Частота                                  : 48,0 КГц
Частота кадров                           : 31,250 кадров/сек (1536 spf)
Метод сжатия                             : С потерями
Размер потока                            : 66,5 Мбайт (9%)
Язык                                     : Russian
Default                                  : Да
Forced                                   : Нет




Скриншоты:
[+] Всего файлов в раздаче - 2:
Otstavnik.Pozyvnoj.Brodjaga.2017.WEB-DLRip-AVC.e01.rus.stalkerok.new-team.mkv746.20 MB
Otstavnik.Pozyvnoj.Brodjaga.2017.WEB-DLRip-AVC.e02.rus.stalkerok.new-team.mkv746.24 MB

Текущая раздача:
ДатаКомментарии    РазмерПиры
2018-02-25 U Отставник. Позывной «бродяга» (2017) WEB-DLRip-AVC от New-Team 1.46 GB ↑ 127 ↓ 66

Похожие раздачи по запросу - отставник:
2018-02-26 U Отставник. Позывной «бродяга» (2017) HDTVRip 720p от ExKinoRay 1К2.63 GB ↑ 105 ↓ 63
2018-02-25 U Отставник. Позывной «бродяга» (2017) HDTVRip-AVC от Files-x 1.37 GB ↑ 142 ↓ 76
2018-02-25 U Отставник. Позывной Бродяга [01-02 из 02] (2017) WEBRip от GeneralFilm 745.81 MB ↑ 158 ↓ 52
2018-02-25 U Отставник. Позывной Бродяга [01-02 из 02] (2017) WEBRip 1080p от MediaClub 4.17 GB ↑ 344 ↓ 229
2018-02-25 U Отставник. Позывной «бродяга» (2017) HDTVRip от Files-x 1.37 GB ↑ 1412 ↓ 473
2015-11-07 U Отставник 3 (2011) HDTVRip-AVC от Files-x 1.37 GB ↑ 179 ↓ 17

Отзывы
Зарегистрируйтесь чтобы добавить комментарий.
Обратная связь
Copyleft ©