↑↓Torrent.by
Поиск
Логин: Регистрация
Пароль: Восстановить пароль
Загрузка...

Лего: Флэш / Lego DC Comics Super Heroes: The Flash (2018) WEB-DLRip 720p | Flarrow Films

Скачать lego-flesh-dc-comics-super-heroes-the-flash-2018-web-dlrip-720p-flarrow-films.torrent
U Магнитная ссылка Размер: 2.95 GB Раздают: 167 Качают: 41 Добавлен: 2018-02-27 04:41:06
Лего: Флэш / Lego DC Comics Super Heroes: The Flash (2018) WEB-DLRip 720p | Flarrow Films

Название: Лего: Флэш
Оригинальное название: Lego DC Comics Super Heroes: The Flash
Год выхода: 2018
Жанр: мультфильм
Режиссер: Этан Сполдинг
В главных ролях: Кейт Микуччи, Кевин Майкл Ричардсон, Джеймс Арнольд Тейлор

О фильме:
После неудачного эксперимента со временем, Флэш начинает себя вести очень странно, постоянно устраивая над друзьями супергероями детские розыгрыши и демонстрируя полное отсутствие суперспособностей. В итоге, Бэтмен решает уволить Флэша из Лиги Справедливости... Но, может всё не так просто и очевидно как кажется, и возможно за всем этим стоит новый неведомый враг.

Страна: США
Продолжительность: 01:18:25
Перевод: Любительский (многоголосый, закадровый) | Flarrow Films

Файл
Формат: MKV
Кодек: MPEG-4 AVC
Качество: WEB-DLRip 720p
Видео: 1280x718, 3 970 Кбит/с, 23.976 FPS, 8 bits
Звук: PCM (A_PCM/INT/LIT), 2 ch, 1 411.2 Кбит/с, 44.1 kHz
Субтитры: отсутствуют

Релиз от: Flarrow Films
Роли озвучивали: Lunar Arrow, Bzeke, Dreamy Sleep, Глеб Петров, Daelit, DIP, hAl, Nogoodvoice, Molli_bolli, Ron и Софья Моргенштерн.


[+] MediaInfo

General
Unique ID                   : 234299085447631985896172791044903313268 (0xB0445CCA38026603B375B3CFD6749F74)
Complete name               : D:DownloadsMoviesLego.DC.Comics.Super.Heroes.The.Flash.Flarrow.Films.mkv
Format                      : Matroska
Format version              : Version 4 / Version 2
File size                   : 2.95 GiB
Duration                    : 1 h 18 min
Overall bit rate            : 5 383 kb/s
Movie name                  : Lego.DC.Comics.Super.Heroes.The.Flash.2018.720p.WEB-DL.DD5.1.H264-FGT
Encoded date                : UTC 2018-02-26 13:15:42
Writing application         : mkvmerge v8.3.0 ('Over the Horizon') 64bit
Writing library             : libebml v1.3.1 + libmatroska v1.4.2

Video
ID                          : 1
Format                      : AVC
Format/Info                 : Advanced Video Codec
Format profile              : High@L3.1
Format settings             : 2 Ref Frames
Format settings, CABAC      : No
Format settings, RefFrames  : 2 frames
Codec ID                    : V_MPEG4/ISO/AVC
Duration                    : 1 h 18 min
Bit rate                    : 3 970 kb/s
Width                       : 1 280 pixels
Height                      : 718 pixels
Display aspect ratio        : 16:9
Frame rate mode             : Constant
Frame rate                  : 23.976 (23976/1000) FPS
Color space                 : YUV
Chroma subsampling          : 4:2:0
Bit depth                   : 8 bits
Scan type                   : Progressive
Bits/(Pixel*Frame)          : 0.180
Stream size                 : 2.17 GiB (74%)
Title                       : Lego.DC.Comics.Super.Heroes.The.Flash.2018.720p.WEB-DL.DD5.1.H264-FGT
Language                    : English
Default                     : Yes
Forced                      : No
Color range                 : Limited
Color primaries             : BT.709
Transfer characteristics    : BT.709
Matrix coefficients         : BT.709

Audio
ID                          : 2
Format                      : PCM
Codec ID                    : A_PCM/INT/LIT
Duration                    : 1 h 18 min
Bit rate mode               : Constant
Bit rate                    : 1 411.2 kb/s
Channel(s)                  : 2 channels
Sampling rate               : 44.1 kHz
Frame rate                  : 5.000 FPS (8820 SPF)
Bit depth                   : 16 bits
Stream size                 : 792 MiB (26%)
Default                     : Yes
Forced                      : No



Скриншоты:
[+] Всего файлов в раздаче - 1:
Lego.DC.Comics.Super.Heroes.The.Flash.Flarrow.Films.mkv2.95 GB

Текущая раздача:
ДатаКомментарии    РазмерПиры
2018-02-27 U Лего: Флэш / Lego DC Comics Super Heroes: The Flash (2018) WEB-DLRip 720p | Flarrow Films 2.95 GB ↑ 167 ↓ 41

Показать еще раздачи по запросу лего:
2018-01-23 U ЛЕГО Мир Юрского периода: Побег Индоминуса / LEGO Jurassic World: The Indominus Escape (2016) WEB-DLRip | D 362.81 MB ↑ 108 ↓ 22
2018-01-20 U ЛЕГО Ниндзяго Фильм / The LEGO Ninjago Movie (2017) BDRip 1080p от ExKinoRay | Лицензия 1К7.74 GB ↑ 55 ↓ 12
2018-01-19 U ЛЕГО Ниндзяго Фильм / The LEGO Ninjago Movie (2017) BDRip от MegaPeer | Лицензия 1.46 GB ↑ 57 ↓ 20
2018-01-18 U ЛЕГО Ниндзяго Фильм / The LEGO Ninjago Movie (2017) BDRip 720p от ExKinoRay | Лицензия 3.83 GB ↑ 49 ↓ 18
2018-01-01 U ЛЕГО Ниндзяго Фильм / The LEGO Ninjago Movie (2017) BDRip от ExKinoRay | iTunes 1.46 GB ↑ 187 ↓ 13
2017-12-28 U ЛЕГО Ниндзяго Фильм / The LEGO Ninjago Movie (2017) HDRip-AVC от Kaztorrents | iTunes 1.45 GB ↑ 162 ↓ 25
2017-12-27 U ЛЕГО Ниндзяго Фильм / The LEGO Ninjago Movie (2017) BDRemux 1080p от ExKinoRay | iTunes 18.54 GB ↑ 31 ↓ 35

Отзывы
Зарегистрируйтесь чтобы добавить комментарий.
Обратная связь
Copyleft ©