↑↓Torrent.by
Поиск
Логин: Регистрация
Пароль: Восстановить пароль
Загрузка...

Золотая мина (1977) DVDRip-AVC

Скачать zolotaya-mina-1977-dvdrip-avc.torrent
U Магнитная ссылка Размер: 2.10 GB Раздают: 51 Качают: 22 Добавлен: 2018-02-27 04:42:31
Золотая мина (1977) DVDRip-AVC

Название: Золотая мина
Год выхода: 1977
Жанр: детектив
Режиссер: Евгений Татарский
В ролях: Михаил Глузский, Евгений Киндинов, Олег Даль, Лариса Удовиченко, Игорь Ефимов, Любовь Полищук, Игорь Янковский, Жанна Прохоренко, Олег Ефремов, Игорь Дмитриев, Елена Фомченко, Лев Лемке, Татьяна Ткач, Игорь Добряков, Геворк Чепчян, Дмитрий Барков

Милицейская группа, возглавляемая полковником Зарубиным расследовала обычное дорожное происшествие: на дороге у дачного поселка неизвестный автомобиль сбил работника универмага Олега Торчинского. А через пару дней архитектор Дроздовский обратился в милицию с заявлением, что кто-то следит за его дачей…

Приятель пострадавшего рассказал в милиции о таинственном кладе, спрятанном на одной из дач поселка, который и хотел найти Торчинский, случайно узнавший о существовании ценностей и месте, где их спрятал отец уголовника Бориса Брунова…

Борис Брунов, сбежавший из заключения, находился в розыске. Он изменил внешность с помощью хирурга, специализирующегося на пластических операциях, и стал фотографом Косовым. Косову-Брунову удалось ускользнуть из засады, организованной оперативниками у дачи Дроздовского. Пришлось капитану Крошину лететь за главарем шайки в Ялту.


Страна: СССР
Продолжительность: 02:10:41 ч.
Перевод: Не требуется

Файл
Кодек: H264
Качество: DVDRip-AVC
Видео: 1.850 кбит./сек., 720х544 пикс., соотн. сторон: 4:3, кол-во кадров: 25.000
Звук: AC3, 448 кбит./сек., 48.0 кГц., 5:1


[+] MediaInfo
General
Unique ID                      : 187161007734322505918474709843793539611 (0x8CCDE61FBBE6D73DAE34DA8C56E9F21B)
Complete name                  : D:Т-файлыЗолотая мина.mkv
Format                         : Matroska
Format version                 : Version 2
File size                      : 2.10 GiB
Duration                       : 2 h 10 min
Overall bit rate               : 2 300 kb/s
Encoded date                   : UTC 2018-02-25 20:41:33
Writing application            : mkvmerge v4.0.0 ('The Stars were mine') сборка от Jun  6 2010 16:18:42
Writing library                : libebml v1.0.0 + libmatroska v1.0.0

Video
ID                             : 1
Format                         : AVC
Format/Info                    : Advanced Video Codec
Format profile                 : High@L4.1
Format settings, CABAC         : Yes
Format settings, RefFrames     : 12 frames
Codec ID                       : V_MPEG4/ISO/AVC
Duration                       : 2 h 10 min
Bit rate                       : 1 850 kb/s
Width                          : 720 pixels
Height                         : 544 pixels
Display aspect ratio           : 4:3
Frame rate mode                : Constant
Frame rate                     : 25.000 FPS
Color space                    : YUV
Chroma subsampling             : 4:2:0
Bit depth                      : 8 bits
Scan type                      : Progressive
Bits/(Pixel*Frame)             : 0.189
Stream size                    : 1.65 GiB (79%)
Title                          : Золотая мина.1977.Dafty.
Writing library                : x264 core 155 r2901M 7d0ff22
Encoding settings              : cabac=1 / ref=12 / deblock=1:-1:-1 / analyse=0x3:0x133 / me=tesa / subme=9 / psy=1 / psy_rd=1.00:0.15 / mixed_ref=1 / me_range=32 / chroma_me=1 / trellis=1 / 8x8dct=1 / cqm=0 / deadzone=21,11 / fast_pskip=1 / chroma_qp_offset=-3 / threads=7 / lookahead_threads=1 / sliced_threads=0 / nr=0 / decimate=1 / interlaced=0 / bluray_compat=0 / constrained_intra=0 / bframes=8 / b_pyramid=2 / b_adapt=2 / b_bias=0 / direct=3 / weightb=1 / open_gop=0 / weightp=2 / keyint=250 / keyint_min=25 / scenecut=40 / intra_refresh=0 / rc_lookahead=40 / rc=2pass / mbtree=1 / bitrate=1850 / ratetol=1.0 / qcomp=0.60 / qpmin=0 / qpmax=69 / qpstep=4 / cplxblur=20.0 / qblur=0.5 / ip_ratio=1.40 / aq=1:1.00
Language                       : Russian
Default                        : No
Forced                         : No
Color range                    : Limited
Color primaries                : BT.601 PAL
Transfer characteristics       : BT.470 System B, BT.470 System G
Matrix coefficients            : BT.601

Audio
ID                             : 2
Format                         : AC-3
Format/Info                    : Audio Coding 3
Format settings, Endianness    : Big
Codec ID                       : A_AC3
Duration                       : 2 h 10 min
Bit rate mode                  : Constant
Bit rate                       : 448 kb/s
Channel(s)                     : 6 channels
Channel positions              : Front: L C R, Side: L R, LFE
Sampling rate                  : 48.0 kHz
Frame rate                     : 31.250 FPS (1536 SPF)
Bit depth                      : 16 bits
Compression mode               : Lossy
Stream size                    : 419 MiB (19%)
Language                       : Russian
Service kind                   : Complete Main
Default                        : No
Forced                         : No

Menu
00:00:00.000                   : :Глава 1
00:07:26.840                   : :Глава 2
00:12:51.440                   : :Глава 3
00:18:35.040                   : :Глава 4
00:30:10.040                   : :Глава 5
00:35:33.760                   : :Глава 6
00:45:39.960                   : :Глава 7
00:52:01.960                   : :Глава 8
01:00:31.960                   : :Глава 9
01:03:32.360                   : :Глава 10
01:12:04.400                   : :Глава 11
01:17:22.720                   : :Глава 12
01:26:01.240                   : :Глава 13
01:32:56.360                   : :Глава 14
01:42:49.320                   : :Глава 15
01:51:36.360                   : :Глава 16
01:58:57.800                   : :Глава 17
02:03:14.760                   : :Глава 18
02:10:39.400                   : :Глава 19




Скриншоты:
[+] Всего файлов в раздаче - 1:
Золотая мина.1977.DVDRip-AVC.mkv2.10 GB

Текущая раздача:
ДатаКомментарии    РазмерПиры
2018-02-27 U Золотая мина (1977) DVDRip-AVC 2.10 GB ↑ 51 ↓ 22

Показать еще раздачи по запросу золотая:
2018-06-12 U Серия книг - Золотая коллекция фантастики [24 книги] (2013-2018) FB2 99.22 MB ↑ 39 ↓ 22
2018-05-20 U Золотая парочка [01-02 из 02] (2017) WEB-DLRip от GeneralFilm 745.43 MB ↑ 53 ↓ 13
2018-05-19 U Золотая парочка [01-02 из 02] (2017) WEB-DLRip-AVC от Files-x 1.11 GB ↑ 81 ↓ 36
2018-05-19 U Золотая парочка [01-02 из 02] (2017) WEB-DLRip от Files-x 1.08 GB ↑ 153 ↓ 57
2018-05-13 U Операция «Золотая ракушка» / Operación Concha (2017) HDRip | GreenРай Studio 1.37 GB ↑ 82 ↓ 31
2018-03-23 U Золотая орда [01-16 из 16] (2018) WEB-DL 1080p от Files-x 27.96 GB ↑ 110 ↓ 316
2018-03-23 U Золотая орда [01-16 из 16] (2018) HDTVRip-AVC от Files-x 12.30 GB ↑ 156 ↓ 281

Отзывы
Зарегистрируйтесь чтобы добавить комментарий.
Обратная связь
Copyleft ©