↑↓Torrent.by
Поиск
Логин: Регистрация
Пароль: Восстановить пароль
Загрузка...

Журналист / Манхэттенская ночь / Manhattan Night (2016) BDRip 1080p | iTunes

Скачать zhurnalist-manhettenskaya-noch-manhattan-night-2016-bdrip-1080p-itunes.torrent
U Магнитная ссылка Размер: 9.90 GB Раздают: 320 Качают: 178 Добавлен: 2018-02-28 08:42:54
Журналист / Манхэттенская ночь / Manhattan Night (2016) BDRip 1080p | iTunes

Название: Журналист
Оригинальное название: Manhattan Night (Manhattan Nocturne)
Год выхода: 2016
Жанр: триллер, драма, криминал, детектив
Режиссер: Брайан ДеКьюбелис
В ролях: Эдриан Броуди, Ивонн Страховски, Кэмпбелл Скотт, Дженнифер Билз, Рауль Аранас, Томас Баир, Уилл Бейнбринк, Стивен Беркофф, Кевин Брезнахан, Джани Браун

О фильме:
С просьбы соблазнительной незнакомки разобраться в нераскрытом убийстве ее мужа начинается неприятная история сексуальной одержимости и шантажа, которая может стоить журналисту Портеру Рену его работы, семьи и даже жизни.

Страна: США
Продолжительность: 01:53:56
Перевод: Профессиональный (дублированный) iTunes

Файл
Формат: MKV
Качество: BDRip 1080p
Видео: 1920х804 at 23.976 fps, MPEG-4 AVC, ~10.3 Mbps avg
Аудио#1: Russian: 48 kHz, AC3, 3/2 (L,C,R,l,r) + LFE ch, ~384.00 kbps avg
Аудио#2: English: 48 kHz, DTS, 3/2 (L,C,R,l,r) + LFE ch, ~1510.00 kbps avg
Cубтитры: Английские

Релиз от: Werecut


[+] MediaInfo
General
Unique ID                   : 246443229949621296681874632410715131358 (0xB9673D576B1A66599488F6ADACBC0DDE)
Complete name               : Manhattan.Night.2016.bdrip.1080p.mkv
Format                      : Matroska
Format version              : Version 2
File size                   : 9.90 GiB
Duration                    : 1 h 53 min
Overall bit rate            : 12.4 Mb/s
Movie name                  : Manhattan Night 2016 от werecut'a
Encoded date                : UTC 2018-02-27 13:55:20
Writing application         : mkvmerge v2.9.9 ('Tutu') built on Nov 25 2009 21:13:32
Writing library             : libebml v0.7.9 + libmatroska v0.8.1

Video
ID                          : 1
Format                      : AVC
Format/Info                 : Advanced Video Codec
Format profile              : High@L4.1
Format settings             : CABAC / 5 Ref Frames
Format settings, CABAC      : Yes
Format settings, ReFrames   : 5 frames
Codec ID                    : V_MPEG4/ISO/AVC
Duration                    : 1 h 53 min
Bit rate                    : 10.3 Mb/s
Width                       : 1 920 pixels
Height                      : 804 pixels
Display aspect ratio        : 2.40:1
Frame rate mode             : Constant
Frame rate                  : 23.976 (24000/1001) FPS
Color space                 : YUV
Chroma subsampling          : 4:2:0
Bit depth                   : 8 bits
Scan type                   : Progressive
Bits/(Pixel*Frame)          : 0.278
Stream size                 : 8.19 GiB (83%)
Writing library             : x264 core 142 r2431+42 c69a006 tMod [8-bit@all X86]
Encoding settings           : cabac=1 / ref=5 / deblock=1:-3:-3 / analyse=0x3:0x113 / me=umh / subme=11 / psy=1 / fade_compensate=0.00 / psy_rd=1.00:0.05 / mixed_ref=1 / me_range=48 / chroma_me=1 / trellis=2 / 8x8dct=1 / cqm=0 / deadzone=21,11 / fast_pskip=0 / chroma_qp_offset=-2 / threads=12 / lookahead_threads=2 / sliced_threads=0 / nr=0 / decimate=1 / interlaced=0 / bluray_compat=0 / constrained_intra=0 / fgo=0 / bframes=8 / b_pyramid=2 / b_adapt=2 / b_bias=0 / direct=3 / weightb=1 / open_gop=0 / weightp=2 / keyint=250 / keyint_min=23 / scenecut=40 / intra_refresh=0 / rc_lookahead=40 / rc=crf / mbtree=0 / crf=18.3000 / qcomp=0.60 / qpmin=0:0:0 / qpmax=69:69:69 / qpstep=4 / vbv_maxrate=40000 / vbv_bufsize=30000 / crf_max=0.0 / nal_hrd=none / filler=0 / ip_ratio=1.40 / pb_ratio=1.30 / aq=3:1.00 / aq-sensitivity=10.00 / aq-factor=1.00:1.00:1.00 / aq2=0 / aq3=0
Language                    : English
Default                     : No
Forced                      : No
Color range                 : Limited
Matrix coefficients         : BT.709

Audio #1
ID                          : 2
Format                      : AC-3
Format/Info                 : Audio Coding 3
Codec ID                    : A_AC3
Duration                    : 1 h 53 min
Bit rate mode               : Constant
Bit rate                    : 384 kb/s
Channel(s)                  : 6 channels
Channel positions           : Front: L C R, Side: L R, LFE
Sampling rate               : 48.0 kHz
Frame rate                  : 31.250 FPS (1536 SPF)
Bit depth                   : 16 bits
Compression mode            : Lossy
Stream size                 : 313 MiB (3%)
Language                    : Russian
Service kind                : Complete Main
Default                     : Yes
Forced                      : No

Audio #2
ID                          : 3
Format                      : DTS
Format/Info                 : Digital Theater Systems
Codec ID                    : A_DTS
Duration                    : 1 h 53 min
Bit rate mode               : Constant
Bit rate                    : 1 509 kb/s
Channel(s)                  : 6 channels
Channel positions           : Front: L C R, Side: L R, LFE
Sampling rate               : 48.0 kHz
Frame rate                  : 93.750 FPS (512 SPF)
Bit depth                   : 24 bits
Compression mode            : Lossy
Delay relative to video     : 11 ms
Stream size                 : 1.20 GiB (12%)
Language                    : English
Default                     : No
Forced                      : No

Text
ID                          : 4
Format                      : UTF-8
Codec ID                    : S_TEXT/UTF8
Codec ID/Info               : UTF-8 Plain Text
Language                    : English
Default                     : No
Forced                      : No

Menu
00:00:00.000                : en:00:00:00.000
00:09:27.150                : en:00:09:27.150
00:14:56.562                : en:00:14:56.562
00:25:48.714                : en:00:25:48.714
00:32:18.770                : en:00:32:18.770
00:39:42.672                : en:00:39:42.672
00:48:02.838                : en:00:48:02.838
00:59:05.208                : en:00:59:05.208
01:06:32.030                : en:01:06:32.030
01:11:48.471                : en:01:11:48.471
01:18:48.849                : en:01:18:48.849
01:25:02.389                : en:01:25:02.389
01:29:03.004                : en:01:29:03.004
01:31:47.836                : en:01:31:47.836
01:40:28.022                : en:01:40:28.022
01:46:12.408                : en:01:46:12.408



Скриншоты:
[+] Всего файлов в раздаче - 1:
Manhattan.Night.2016.bdrip.1080p.mkv9.90 GB

Текущая раздача:
ДатаКомментарии    РазмерПиры
2018-02-28 U Журналист / Манхэттенская ночь / Manhattan Night (2016) BDRip 1080p | iTunes 9.90 GB ↑ 320 ↓ 178

Похожие раздачи по запросу - журналист:
2013-12-10 U Журналист (1967) DVDRip 1К2.19 GB ↑ 236 ↓ 10

Отзывы
Зарегистрируйтесь чтобы добавить комментарий.
Обратная связь
Copyleft ©