↑↓Torrent.by
Поиск
Логин: Регистрация
Пароль: Восстановить пароль
Загрузка...

Плюшевый монстр / Lino: Uma Aventura de Sete Vidas (2017) WEB-DLRip от R.G.Resident | iTunes

Скачать plyushevyy-monstr-lino-uma-aventura-de-sete-vidas-2017-web-dlrip-ot-r-g-resident-itunes.torrent
U Магнитная ссылка Размер: 1.37 GB Раздают: 115 Качают: 38 Добавлен: 2018-03-01 16:22:13
Плюшевый монстр / Lino: Uma Aventura de Sete Vidas (2017) WEB-DLRip от R.G.Resident | iTunes

Название: Плюшевый монстр
Оригинальное название: Lino: Uma Aventura de Sete Vidas
Год выпуска: 2017
Страна: Бразилия
Жанр: мультфильм, семейный
Перевод: Дубляж - [iTunes]
Продолжительность: 01:32:25
Режиссер: Рафаэль Рибас
В ролях: Селтон Мелу (Lino, озвучка), Дира Паис (Janine, озвучка), Паола Оливейра (Patty, озвучка), Луис Карлос Де Мораес (Don Leon, озвучка), Гильерме Лопес (Victor, озвучка), Хелио Рибейро (Mestre Henry Topper, озвучка), Лупа Мабузе (Osmar, озвучка), Лео Рабело (Mellos, озвучка), Марсело Чепа (Chefe da Polícia, озвучка), Рейнальдо Родригес (Vigia do Zoológico, озвучка), Паоло Бернардо (Porteiro do Zoológico), Фил (Funcionário, озвучка)

Описание:
Жизнь Лино - молодого парня, работающего аниматором в детском саду, - кажется беспросветной: его дом того и гляди развалится, девушки его не любят, а на работе целый день терроризируют дети. Отчаявшись, он решается обратиться к одному незадачливому магу, который обещает найти выход из любой ситуации. И маг находит способ кардинально изменить жизнь Лино. Однако с колдовством что-то пошло не так, и Лино превратился в огромного кота-монстра. Как всё вернуть назад и стать счастливым?

 
Качество: WEB-DLRip
Формат: AVI
Видео: XviD, 688x384 (16:9), 1723 kbps, 24 fps, 0,272 bpp
Аудио: AC3 / 5.1 / 48 kHz / 384 kbps /
Семпл

Релиз:


[+] ОтчетМедиаИнфо

General
Complete name                            : E:Plushevy.monster.2017.WEB-DLRip.R.G.Resident.avi
Format                                   : AVI
Format/Info                              : Audio Video Interleave
File size                                : 1.37 GiB
Duration                                 : 1 h 32 min
Overall bit rate                         : 2 117 kb/s
Writing application                      : VirtualDubModRus 1.5.10.2 (build 2542/release)
Writing library                          : VirtualDubMod build 2542/release

Video
ID                                       : 0
Format                                   : MPEG-4 Visual
Format profile                           : Advanced Simple@L5
Format settings, BVOP                    : 2
Format settings, QPel                    : No
Format settings, GMC                     : No warppoints
Format settings, Matrix                  : Custom
Codec ID                                 : XVID
Codec ID/Hint                            : XviD
Duration                                 : 1 h 32 min
Bit rate                                 : 1 723 kb/s
Width                                    : 688 pixels
Height                                   : 384 pixels
Display aspect ratio                     : 16:9
Frame rate                               : 24.000 FPS
Color space                              : YUV
Chroma subsampling                       : 4:2:0
Bit depth                                : 8 bits
Scan type                                : Progressive
Compression mode                         : Lossy
Bits/(Pixel*Frame)                       : 0.272
Stream size                              : 1.11 GiB (81%)
Writing library                          : XviD 73

Audio
ID                                       : 1
Format                                   : AC-3
Format/Info                              : Audio Coding 3
Mode extension                           : CM (complete main)
Format settings, Endianness              : Big
Codec ID                                 : 2000
Duration                                 : 1 h 32 min
Bit rate mode                            : Constant
Bit rate                                 : 384 kb/s
Channel(s)                               : 6 channels
Channel positions                        : Front: L C R, Side: L R, LFE
Sampling rate                            : 48.0 kHz
Frame rate                               : 31.250 FPS (1536 spf)
Compression mode                         : Lossy
Stream size                              : 254 MiB (18%)
Alignment                                : Split accross interleaves
Interleave, duration                     : 42  ms (1.00 video frame)
Interleave, preload duration             : 500  ms




Скриншоты:
[+] Всего файлов в раздаче - 1:
Plushevy.monster.2017.WEB-DLRip.R.G.Resident.avi1.37 GB

Текущая раздача:
ДатаКомментарии    РазмерПиры
2018-03-01 U Плюшевый монстр / Lino: Uma Aventura de Sete Vidas (2017) WEB-DLRip от R.G.Resident | iTunes 1.37 GB ↑ 115 ↓ 38

Похожие раздачи по запросу - плюшевый:
2018-03-02 U Плюшевый монстр / Lino: Uma Aventura de Sete Vidas (2017) WEB-DLRip | iTunes 698.97 MB ↑ 168 ↓ 17
2018-03-01 U Плюшевый монстр / Lino: Uma Aventura de Sete Vidas (2017) WEB-DL 1080p | iTunes 3.56 GB ↑ 216 ↓ 67
2018-03-01 U Плюшевый монстр / Lino: Uma Aventura de Sete Vidas (2017) WEB-DLRip от MegaPeer | iTunes 1К1.46 GB ↑ 414 ↓ 61
2018-03-01 U Плюшевый монстр / Lino: Uma Aventura de Sete Vidas (2017) WEB-DL 720p | iTunes 2.85 GB ↑ 134 ↓ 66

Отзывы
Зарегистрируйтесь чтобы добавить комментарий.
Обратная связь
Copyleft ©