↑↓Torrent.by
Поиск
Логин: Регистрация
Пароль: Восстановить пароль
Загрузка...

Тайна Коко / Coco (2017) BDRip 1080p от Ash61 | 3D-Video | halfOU | iTunes

Скачать tayna-koko-coco-2017-bdrip-1080p-ot-ash61-3d-video-halfou-itunes.torrent
U Магнитная ссылка Размер: 8.09 GB Раздают: 138 Качают: 35 Добавлен: 2018-03-03 09:04:50
Тайна Коко / Coco (2017) BDRip 1080p от Ash61 | 3D-Video | halfOU | iTunes

Тайна Коко
Coco
«Праздник жизни»
(Видеоряд англо-испано-язычный)


Год выпуска: 2017
Страна: США (Walt Disney Pictures, Pixar Animation Studios)
Жанр:  мультфильм, фэнтези, комедия, детектив, приключения, семейный, музыка
Продолжительность: 01:45:02

Перевод: Профессиональный дублированный - iTunes

Режиссеры: Ли Анкрич, Эдриан Молина / Lee Unkrich, Adrian Molina

Роли озвучивали / дублировали: Энтони Гонсалес / Владимир Баргман, Лев Кошкаров (Miguel), Гаэль Гарсиа Берналь / Виктор Киричёк (Héctor), Бенджамин Брэтт / Михаил Хрусталёв (Ernesto de la Cruz), Аланна Юбак / Елена Шульман (Mamá Imelda), Рене Виктор / Елена Павловская (Abuelita), Хайме Камиль / Александр Разбаш (Papá), Альфонсо Арау / Валентин Морозов (Papá Julio), Херберт Сигенса / Максим Сергеев (Tío Oscar / Tío Felipe), Габриэль Иглесиас / Артем Веселов (Clerk), Ломбардо Бойяр / Артем Веселов, Алексей Макрецкий (Plaza Mariachi / Gustavo), Ана Офелиа Мургуйя / Елена Ставрогина (Mamá Coco), Наталия Кордова / Регина Щукина (Frida Kahlo), Селене Луна / Елена Терновая (Tía Rosita), Эдвард Джеймс Олмос / Андрей Пирог (Chicharrón), София Эспиноса / Светлана Кузнецова (Mamá), Дайана Ортелли / Ольга Ефимова (Tía Victoria), Луис Вальдес / Борис Хасанов (Tío Berto / Don Hidalgo), Бланка Арасели / Регина Щукина (Emcee), Чич Марин / Артем Веселов (Corrections Officer), Джон Ратценбергер / Александр Хомик (Juan Ortodoncia)

Описание: 12-летний Мигель живёт в мексиканской деревушке в семье сапожников и тайно мечтает стать музыкантом. Тайно — потому что в его семейном клане музыка считается проклятием. Когда-то его прапрадед оставил свою жену, прапрабабку Мигеля, ради мечты, которая теперь не даёт спокойно жить Мигелю. С тех пор музыкальная тема в семье стала табу. Мигель обнаруживает, что между ним и его любимым певцом Эрнесто де ла Крусом, ныне покойным, существует некая — пока неназванная — связь. Паренёк отправляется к своему кумиру в Страну Мёртвых, где встречает души своих предков. Мигель знакомится там с духом-трикстером по имени Гектор (в облике скелета), который становится его проводником. Вдвоём они отправляются на поиски де ла Круса.

Премьера: 20 октября 2017 (23 ноября 2017)
Релиз на Blu-Ray (DVD) (Россия): 20 марта 2018
Кассовые сборы: $739 550 754
Топ 250 Кинопоиска: #23 (1.03.2018)


Качество: BDRip (by Ash61)
Контейнер: MKV
Формат 3D: Half OverUnder / Вертикальная анаморфная стереопара
Порядок ракурсов: левый ракурс первый

Видео: AVC / 1920х1080p / 23,976 fps / 10.0 Mbps

Аудио:
#1 - Русский / AC3 / 48 KHz / 5.1 ch / 384 Kbps (Дубляж - iTunes) (синхронизирована по 3Д версию)
#2 - Английский / AC3 / 48 KHz / 5.1 ch / 640 Kbps (Original - BD 3D)

Субтитры (SRT):
Вшитые (softsub):
#1 - Русские Форсированные (Ash61 [v.1]) (включены по умолчанию)
#2 - Русские Полные
#3 - English Full
#4 - English SDH

Внешние (UTF-8):
#1 - Русские Форсированные (Ash61 [v.1]) (включены по умолчанию)
#2 - Русские Полные

[+] MediaInfo
General
Unique ID                   : 102224569851117841028085148510296558417 (0x4CE7BC6B56596BB9E42226A72CF14B51)
Complete name               : D:Coco(2017)3D-halfOU(Ash61)iTunes(Video.Eng)Coco(2017)3D-halfOU(Ash61)iTunes(Video.Eng).mkv
Format                      : Matroska
Format version              : Version 4 / Version 2
File size                   : 8.09 GiB
Duration                    : 1h 45mn
Overall bit rate            : 11.0 Mbps
Movie name                  : Тайна Коко / Coco (2017) in 3D
Encoded date                : UTC 2018-03-02 14:07:39
Writing application         : mkvmerge v19.0.0 ('Brave Captain') 64-bit
Writing library             : libebml v1.3.5 + libmatroska v1.4.8

Video
ID                          : 1
Format                      : AVC
Format/Info                 : Advanced Video Codec
Format profile              : High@L4.1
Format settings, CABAC      : Yes
Format settings, ReFrames   : 4 frames
Codec ID                    : V_MPEG4/ISO/AVC
Duration                    : 1h 45mn
Bit rate                    : 10 000 Kbps
Width                       : 1 920 pixels
Height                      : 1 080 pixels
Display aspect ratio        : 16:9
Frame rate mode             : Constant
Frame rate                  : 23.976 (24000/1001) fps
Color space                 : YUV
Chroma subsampling          : 4:2:0
Bit depth                   : 8 bits
Scan type                   : Progressive
Bits/(Pixel*Frame)          : 0.201
Stream size                 : 7.34 GiB (91%)
Title                       : BDRip by Ash61 (Video English)
Writing library             : x264 core 146 r2538 121396c
Encoding settings           : cabac=1 / ref=4 / deblock=1:-3:-3 / analyse=0x3:0x113 / me=umh / subme=10 / psy=1 / psy_rd=1.00:0.00 / mixed_ref=1 / me_range=32 / chroma_me=1 / trellis=2 / 8x8dct=1 / cqm=0 / deadzone=21,11 / fast_pskip=0 / chroma_qp_offset=-2 / threads=12 / lookahead_threads=2 / sliced_threads=0 / nr=0 / decimate=0 / interlaced=0 / bluray_compat=0 / constrained_intra=0 / bframes=8 / b_pyramid=2 / b_adapt=2 / b_bias=0 / direct=3 / weightb=1 / open_gop=0 / weightp=2 / keyint=250 / keyint_min=23 / scenecut=40 / intra_refresh=0 / rc_lookahead=60 / rc=2pass / mbtree=0 / bitrate=10000 / ratetol=1.0 / qcomp=0.70 / qpmin=0 / qpmax=69 / qpstep=4 / cplxblur=20.0 / qblur=0.5 / vbv_maxrate=40000 / vbv_bufsize=30000 / nal_hrd=none / filler=0 / frame-packing=4 / ip_ratio=1.40 / pb_ratio=1.30 / aq=1:0.70
Language                    : English
Default                     : Yes
Forced                      : No

Audio #1
ID                          : 2
Format                      : AC-3
Format/Info                 : Audio Coding 3
Mode extension              : CM (complete main)
Format settings, Endianness : Big
Codec ID                    : A_AC3
Duration                    : 1h 45mn
Bit rate mode               : Constant
Bit rate                    : 384 Kbps
Channel(s)                  : 6 channels
Channel positions           : Front: L C R, Side: L R, LFE
Sampling rate               : 48.0 KHz
Frame rate                  : 31.250 fps (1536 spf)
Compression mode            : Lossy
Stream size                 : 288 MiB (3%)
Title                       : Дубляж - iTunes (для 3D версии)
Language                    : Russian
Default                     : Yes
Forced                      : No

Audio #2
ID                          : 3
Format                      : AC-3
Format/Info                 : Audio Coding 3
Mode extension              : CM (complete main)
Format settings, Endianness : Big
Codec ID                    : A_AC3
Duration                    : 1h 45mn
Bit rate mode               : Constant
Bit rate                    : 640 Kbps
Channel(s)                  : 6 channels
Channel positions           : Front: L C R, Side: L R, LFE
Sampling rate               : 48.0 KHz
Frame rate                  : 31.250 fps (1536 spf)
Compression mode            : Lossy
Stream size                 : 481 MiB (6%)
Title                       : Original - BD 3D
Language                    : English
Default                     : No
Forced                      : No

Text #1
ID                          : 4
Format                      : UTF-8
Codec ID                    : S_TEXT/UTF8
Codec ID/Info               : UTF-8 Plain Text
Duration                    : 1h 33mn
Bit rate                    : 0 bps
Count of elements           : 15
Stream size                 : 533 Bytes (0%)
Title                       : Форсированные (Ash61 [v1])
Language                    : Russian
Default                     : Yes
Forced                      : No

Text #2
ID                          : 5
Format                      : UTF-8
Codec ID                    : S_TEXT/UTF8
Codec ID/Info               : UTF-8 Plain Text
Duration                    : 1h 34mn
Bit rate                    : 94 bps
Count of elements           : 1168
Stream size                 : 65.7 KiB (0%)
Title                       : Полные
Language                    : Russian
Default                     : No
Forced                      : No

Text #3
ID                          : 6
Format                      : UTF-8
Codec ID                    : S_TEXT/UTF8
Codec ID/Info               : UTF-8 Plain Text
Duration                    : 1h 37mn
Bit rate                    : 63 bps
Count of elements           : 1441
Stream size                 : 45.6 KiB (0%)
Title                       : Full
Language                    : English
Default                     : No
Forced                      : No

Text #4
ID                          : 7
Format                      : UTF-8
Codec ID                    : S_TEXT/UTF8
Codec ID/Info               : UTF-8 Plain Text
Duration                    : 1h 38mn
Bit rate                    : 77 bps
Count of elements           : 1722
Stream size                 : 55.9 KiB (0%)
Title                       : SDH
Language                    : English
Default                     : No
Forced                      : No

Menu
00:00:00.000                : : 1. Prologue
00:06:40.190                : : 2. Meet Miguel
00:08:41.519                : : 3. Shoemakers
00:11:13.589                : : 4. Much Needed Advice
00:14:20.317                : : 5. Secret Discovery
00:17:06.942                : : 6. Dream Shattered
00:18:20.932                : : 7. Unholy Act
00:22:05.990                : : 8. Skeletons
00:24:19.958                : : 9. Crossing the Bridge
00:27:44.828                : : 10. Department of Family Reunions
00:29:07.912                : : 11. Setting the Rules
00:32:15.307                : : 12. Escape from Family
00:35:18.407                : : 13. Rehearsal
00:41:25.523                : : 14. The Final Death
00:47:04.695                : : 15. Backstage Bonding
00:50:54.175                : : 16. Talent Show
00:54:23.885                : : 17. On His Own
00:56:45.025                : : 18. Meet de la Cruz
01:01:42.614                : : 19. Kindred Spirits
01:03:28.137                : : 20. The Awful Truth
01:08:58.216                : : 21. Remember Me
01:15:17.261                : : 22. Reconciliation
01:18:56.773                : : 23. Find the Photo
01:21:31.761                : : 24. Sunrise Spectacular
01:24:31.815                : : 25. Blessing Received
01:28:23.463                : : 26. Song for Coco
01:33:14.755                : : 27. One Year Later
01:36:10.471                : : 28. End Credits



[+] Для оценки 3Д - Анимированные скрины




















[+] Всего файлов в раздаче - 3:
Coco(2017)3D-halfOU(Ash61)iTunes(Video.Eng).mkv8.09 GB
Coco(2017)3D-halfOU(Ash61)iTunes(Video.Eng).srt1.09 kB
Coco(2017)Субтитры.Русские.Полные.srt111.40 kB

Текущая раздача:
ДатаКомментарии    РазмерПиры
2018-03-03 U Тайна Коко / Coco (2017) BDRip 1080p от Ash61 | 3D-Video | halfOU | iTunes 8.09 GB ↑ 138 ↓ 35

Показать еще раздачи по запросу тайна:
2018-10-26 U Семейная тайна [01-04 из 04] (2018) SATRip 2.42 GB ↑ 115 ↓ 62
2018-10-06 U Тайна Ватиканской рукописи: великое пророчество о России (2018) SATRip 1.31 GB ↑ 247 ↓ 36
2018-09-26 U Улика из прошлого. Дело гастронома №1: тайна торговой мафии (2018) SATRip 513.44 MB ↑ 75 ↓ 13
2018-09-19 U Улика из прошлого. Тайна эпидемий: смерть из пробирки (2018) SATRip 489.55 MB ↑ 67 ↓ 9
2018-09-13 U Секретная папка. Тайна агента Вертера (2018) SATRip 506.24 MB ↑ 70 ↓ 11
2018-09-04 U Загадки века. Мина для Хрущева: тайна капитана Крэбба (2018) SATRip 536.78 MB ↑ 136 ↓ 9
2018-08-28 U Агата Кристи - Карибская тайна (2018) MP3 478.64 MB ↑ 21 ↓ 7

Отзывы
Зарегистрируйтесь чтобы добавить комментарий.
Обратная связь
Copyleft ©