↑↓Torrent.by
Поиск
Логин: Регистрация
Пароль: Восстановить пароль
Загрузка...

Добытчица / The Breadwinner (2017) HDRip-AVC от NNNB | L1

Скачать dobytchica-the-breadwinner-2017-hdrip-avc-ot-nnnb-l1.torrent
U Магнитная ссылка Размер: 2.50 GB Раздают: 327 Качают: 41 Добавлен: 2018-03-03 14:02:37
Добытчица / The Breadwinner (2017) HDRip-AVC от NNNB | L1

Информация о фильме
Русское название: Добытчица
Оригинальное название: The Breadwinner
Год выхода: 2017
Жанр:  мультфильм, семейный
Режиссер: Нора Туми
Выпущено: Ирландия, Канада, Люксембург
Продолжительность: 01:33:25
Перевод: Любительский (одноголосый, закадровый) PiratVoice
Роли озвучивали: Саара Чодри, Лаара Сэдик, Shaista Latif, Али Ризви, Нурин Гуламгаус, Кава Ада, Сома Бхатия, Kanza Feris, Али Казми, Кэйн Махон

Описание:
История упрямой девочки, которая переодевается мальчиком для того, чтобы обеспечивать свою семью.

Файл
Качество: HDRip-AVC (Исходник BDRip 1080p)
Контейнер: MKV (расширение файла)
Видео: 1024x428, 2550 Кбит/сек, 23,976 кадр/сек, AVC, x264, High@L4.1, 2.40:1, 0.243 Бит/[Пиксели*Кадры]
Аудио 1: AC-3, 640 Кбит/сек, 6 канала(ов), 48,0 КГц - Одноголосый закадровый, PiratVoice / Русский
Аудио 2: AC-3, 640 Кбит/сек, 6 канала(ов), 48,0 КГц - Оригинал / Английский
Субтитры: Русские | Полные (FOCS, Don_Leprikon, Женя Спицын), Английские | Полные
Форсированные субтитры: Нет
Чаптеры (Главы): Есть
Дополнительная информация: Озвучено по субтитрам FOCS, группой PiratVoice / Клерик

Релиз:


[+] MediaInfo

Format                      : Matroska
Format version              : Version 2
File size                   : 2.50 GiB
Duration                    : 1 h 33 min
Overall bit rate            : 3 828 kb/s
Movie name                  : The Breadwinner.(2017).BDRip.AVC.[envy]
Encoded date                : UTC 2018-03-02 21:01:21
Writing application         : mkvmerge v5.8.0 ('No Sleep / Pillow') built on Sep  2 2012 15:37:04
Writing library             : libebml v1.2.3 + libmatroska v1.3.0

Video
ID                          : 1
Format                      : AVC
Format/Info                 : Advanced Video Codec
Format profile              : High@L4.1
Format settings             : CABAC / 10 Ref Frames
Format settings, CABAC      : Yes
Format settings, ReFrames   : 10 frames
Codec ID                    : V_MPEG4/ISO/AVC
Duration                    : 1 h 33 min
Bit rate                    : 2 550 kb/s
Width                       : 1 024 pixels
Height                      : 428 pixels
Display aspect ratio        : 2.40:1
Frame rate mode             : Constant
Frame rate                  : 23.976 (24000/1001) FPS
Color space                 : YUV
Chroma subsampling          : 4:2:0
Bit depth                   : 8 bits
Scan type                   : Progressive
Bits/(Pixel*Frame)          : 0.243
Stream size                 : 1.61 GiB (65%)
Title                       : The Breadwinner.(2017).BDRip.AVC.[envy]
Writing library             : x264 core 155 r2901 7d0ff22
Encoding settings           : cabac=1 / ref=10 / deblock=1:0:0 / analyse=0x3:0x113 / me=umh / subme=10 / psy=1 / psy_rd=1.00:0.00 / mixed_ref=1 / me_range=32 / chroma_me=1 / trellis=2 / 8x8dct=1 / cqm=0 / deadzone=21,11 / fast_pskip=0 / chroma_qp_offset=-2 / threads=12 / lookahead_threads=1 / sliced_threads=0 / nr=0 / decimate=1 / interlaced=0 / bluray_compat=0 / constrained_intra=0 / bframes=5 / b_pyramid=2 / b_adapt=2 / b_bias=0 / direct=3 / weightb=1 / open_gop=0 / weightp=2 / keyint=240 / keyint_min=23 / scenecut=40 / intra_refresh=0 / rc=2pass / mbtree=0 / bitrate=2550 / ratetol=1.0 / qcomp=0.60 / qpmin=0 / qpmax=69 / qpstep=4 / cplxblur=20.0 / qblur=0.5 / ip_ratio=1.40 / pb_ratio=1.30 / aq=1:1.00
Language                    : English
Default                     : Yes
Forced                      : No

Audio #1
ID                          : 2
Format                      : AC-3
Format/Info                 : Audio Coding 3
Codec ID                    : A_AC3
Duration                    : 1 h 33 min
Bit rate mode               : Constant
Bit rate                    : 640 kb/s
Channel(s)                  : 6 channels
Channel positions           : Front: L C R, Side: L R, LFE
Sampling rate               : 48.0 kHz
Frame rate                  : 31.250 FPS (1536 SPF)
Bit depth                   : 16 bits
Compression mode            : Lossy
Stream size                 : 428 MiB (17%)
Title                       : PiratVoice
Language                    : Russian
Service kind                : Complete Main
Default                     : Yes
Forced                      : No

Audio #2
ID                          : 3
Format                      : AC-3
Format/Info                 : Audio Coding 3
Codec ID                    : A_AC3
Duration                    : 1 h 33 min
Bit rate mode               : Constant
Bit rate                    : 640 kb/s
Channel(s)                  : 6 channels
Channel positions           : Front: L C R, Side: L R, LFE
Sampling rate               : 48.0 kHz
Frame rate                  : 31.250 FPS (1536 SPF)
Bit depth                   : 16 bits
Compression mode            : Lossy
Stream size                 : 428 MiB (17%)
Title                       : Eng
Language                    : English
Service kind                : Complete Main
Default                     : No
Forced                      : No

Text #1
ID                          : 4
Format                      : UTF-8
Codec ID                    : S_TEXT/UTF8
Codec ID/Info               : UTF-8 Plain Text
Title                       : Rus full FOCS
Language                    : Russian
Default                     : No
Forced                      : No

Text #2
ID                          : 5
Format                      : UTF-8
Codec ID                    : S_TEXT/UTF8
Codec ID/Info               : UTF-8 Plain Text
Title                       : Rus full Don_Leprikon
Language                    : Russian
Default                     : No
Forced                      : No

Text #3
ID                          : 6
Format                      : UTF-8
Codec ID                    : S_TEXT/UTF8
Codec ID/Info               : UTF-8 Plain Text
Title                       : Rus full Женя Спицын
Language                    : Russian
Default                     : No
Forced                      : No

Text #4
ID                          : 7
Format                      : UTF-8
Codec ID                    : S_TEXT/UTF8
Codec ID/Info               : UTF-8 Plain Text
Title                       : Eng full
Language                    : English
Default                     : No
Forced                      : No

Menu
00:00:00.000                : :00:00:00.000
00:05:33.959                : :00:05:33.959
00:10:59.826                : :00:10:59.826
00:15:44.610                : :00:15:44.610
00:20:48.539                : :00:20:48.539
00:25:10.509                : :00:25:10.509
00:30:49.598                : :00:30:49.598
00:35:16.906                : :00:35:16.906
00:40:06.946                : :00:40:06.946
00:45:13.961                : :00:45:13.961
00:50:01.248                : :00:50:01.248
00:55:13.018                : :00:55:13.018
01:00:17.280                : :01:00:17.280
01:06:06.880                : :01:06:06.880
01:10:09.747                : :01:10:09.747
01:15:29.525                : :01:15:29.525
01:20:17.021                : :01:20:17.021
01:25:54.149                : :01:25:54.149



Скриншоты:
[+] Всего файлов в раздаче - 1:
The.Breadwinner.(2017).BDRip.AVC.[envy].mkv2.50 GB

Текущая раздача:
ДатаКомментарии    РазмерПиры
2018-03-03 U Добытчица / The Breadwinner (2017) HDRip-AVC от NNNB | L1 2.50 GB ↑ 327 ↓ 41

Похожие раздачи по запросу - добытчица:
2018-03-03 U Добытчица / The Breadwinner (2017) BDRip 1080p | L1 4.79 GB ↑ 118 ↓ 57

Отзывы
Зарегистрируйтесь чтобы добавить комментарий.
Обратная связь
Copyleft ©