↑↓Torrent.by
Поиск
Логин: Регистрация
Пароль: Восстановить пароль
Загрузка...

Леди Баг и Супер-кот / Miraculous: Tales of Ladybug & Cat Noir [02x01-06] (2017) SATRip-AVC | D

Скачать ledi-bag-i-super-kot-miraculous-tales-of-ladybug-cat-noir-02x01-06-2017-satrip-avc-d.torrent
U Магнитная ссылка Размер: 988.12 MB Раздают: 46 Качают: 15 Добавлен: 2018-03-04 11:29:54
Леди Баг и Супер-кот / Miraculous: Tales of Ladybug & Cat Noir [02x01-06] (2017) SATRip-AVC | D

Название: Леди Баг и Супер-кот
Оригинальное название: Miraculous: Tales of Ladybug & Cat Noir
Год выхода: 2017
Жанр: детский, семейный, приключения, комедия
Режиссер: Томас Аструк / Thomas Astruc
В ролях: Anouck Hautbois, Benjamin Bollen, Antoine Tome, Marie Nonenmacher, Thierry Kazazian, Fanny Bloc, Marie Chevalot, Alexandre N'guyen

О фильме:
Адриан и Маринетт — старшеклассники, почти как все остальные. При малейшей угрозе Парижу они становятся ЛедиБаг и Котом Нуаром. Их миссия — захватить акум (тёмных бабочек), которые превращают людей в супер-злодеев. Когда герои объединяются, каждый из них не знает истинной личности другого. Маринетт не знает, что Кот Нуар на самом деле Адриан — мальчик в которого она тайно влюблена, а Адриан, чьё сердце бьётся ради ЛедиБаг, не знает, что под маской супер-героини скрывается милая и ветреная одноклассница.

Страна: Франция
Продолжительность: 00:22:00 серия
Перевод: Профессиональный (дублированный) [студия "Кириллица" по заказу тк Дисней]

Файл
Кодек: AVC / AAC
Качество: SATRip-AVC
Видео: AVC; 8 bit; 891 kbps, 720x576@763x576 (4:3), 0.086 Bits/(Pixel*Frame)
Звук: AAC, 2 ch, 44.1 kHz, 192 kbps
Субтитры: отсутствуют


[+] Список эпизодов:

01. Собиратель
02. Королева прайм-тайма
03. Гневный мишка
04. Бифана
05. Укол
06. Робостус



[+] MediaInfo

General
Complete name                            : 1 серия - Собиратель.mp4
Format                                   : MPEG-4
Format profile                           : Base Media
Codec ID                                 : isom (isom/iso2/avc1/mp41)
File size                                : 165 MiB
Duration                                 : 21 min 17 s
Overall bit rate                         : 1 084 kb/s
Encoded date                             : UTC 1904-01-01 00:00:00
Tagged date                              : UTC 1904-01-01 00:00:00
Writing application                      : Lavf57.83.100

Video
ID                                       : 1
Format                                   : AVC
Format/Info                              : Advanced Video Codec
Format profile                           : High@L3
Format settings, CABAC                   : Yes
Format settings, ReFrames                : 4 frames
Codec ID                                 : avc1
Codec ID/Info                            : Advanced Video Coding
Duration                                 : 21 min 17 s
Bit rate                                 : 891 kb/s
Width                                    : 720 pixels
Height                                   : 576 pixels
Display aspect ratio                     : 4:3
Frame rate mode                          : Constant
Frame rate                               : 25.000 FPS
Standard                                 : PAL
Color space                              : YUV
Chroma subsampling                       : 4:2:0
Bit depth                                : 8 bits
Scan type                                : Progressive
Bits/(Pixel*Frame)                       : 0.086
Stream size                              : 135 MiB (82%)
Writing library                          : x264 core 148
Encoding settings                        : cabac=1 / ref=2 / deblock=1:0:0 / analyse=0x3:0x113 / me=hex / subme=6 / psy=1 / psy_rd=1.00:0.00 / mixed_ref=1 / me_range=16 / chroma_me=1 / trellis=1 / 8x8dct=1 / cqm=0 / deadzone=21,11 / fast_pskip=1 / chroma_qp_offset=-2 / threads=6 / lookahead_threads=1 / sliced_threads=0 / nr=0 / decimate=1 / interlaced=0 / bluray_compat=0 / constrained_intra=0 / bframes=3 / b_pyramid=2 / b_adapt=1 / b_bias=0 / direct=1 / weightb=1 / open_gop=0 / weightp=1 / keyint=250 / keyint_min=25 / scenecut=40 / intra_refresh=0 / rc_lookahead=30 / rc=2pass / mbtree=1 / bitrate=891 / ratetol=1.0 / qcomp=0.60 / qpmin=0 / qpmax=69 / qpstep=4 / cplxblur=20.0 / qblur=0.5 / vbv_maxrate=891 / vbv_bufsize=1782 / nal_hrd=none / filler=0 / ip_ratio=1.40 / aq=1:1.00
Encoded date                             : UTC 1904-01-01 00:00:00
Tagged date                              : UTC 1904-01-01 00:00:00

Audio
ID                                       : 2
Format                                   : AAC
Format/Info                              : Advanced Audio Codec
Format profile                           : LC
Codec ID                                 : 40
Duration                                 : 21 min 17 s
Bit rate mode                            : Constant
Bit rate                                 : 192 kb/s
Channel(s)                               : 2 channels
Channel(s)_Original                      : 1 channel
Channel positions                        : Front: C
Sampling rate                            : 44.1 kHz
Frame rate                               : 43.066 FPS (1024 spf)
Compression mode                         : Lossy
Stream size                              : 29.2 MiB (18%)
Default                                  : Yes
Alternate group                          : 1
Encoded date                             : UTC 1904-01-01 00:00:00
Tagged date                              : UTC 1904-01-01 00:00:00




Скриншоты:
[+] Всего файлов в раздаче - 6:
1 серия - Собиратель.mp4165.08 MB
2 серия - Королева прайм-тайма.mp4164.79 MB
3 серия - Гневный мишка.mp4164.62 MB
4 серия - Бифана.mp4164.35 MB
5 серия - Укол.mp4164.89 MB
6 серия - Робостус.mp4164.39 MB

Текущая раздача:
ДатаКомментарии    РазмерПиры
2018-03-04 U Леди Баг и Супер-кот / Miraculous: Tales of Ladybug & Cat Noir [02x01-06] (2017) SATRip-AVC | D 988.12 MB ↑ 46 ↓ 15

Показать еще раздачи по запросу леди:
2018-07-15 U Дневник леди М / Le journal de Lady M (1993) DVDRip | A 1.46 GB ↑ 99 ↓ 23
2018-06-16 U Леди Бёрд / Lady Bird (2017) BDRip 1080p от ExKinoRay | Лицензия 8.25 GB ↑ 112 ↓ 38
2018-05-10 U Леди Бёрд / Lady Bird (2017) BDRip 720p от ExKinoRay | iTunes 3.75 GB ↑ 53 ↓ 11
2018-05-10 U Леди Бёрд / Lady Bird (2017) BDRip 1080p от ExKinoRay | iTunes 7.71 GB ↑ 94 ↓ 14
2018-05-10 U Леди Бёрд / Lady Bird (2017) BDRip от MegaPeer | iTunes 1.42 GB ↑ 126 ↓ 20
2018-03-28 U Леди Баг и Супер-кот / Miraculous: Tales of Ladybug & Cat Noir [02x01-09] (2017) SATRip-AVC | D 1.44 GB ↑ 144 ↓ 25
2018-03-14 U Леди Баг и Супер-кот / Miraculous: Tales of Ladybug & Cat Noir [02x01-08] (2017) SATRip-AVC | D 1.28 GB ↑ 43 ↓ 22

Отзывы
Зарегистрируйтесь чтобы добавить комментарий.
Обратная связь
Copyleft ©