↑↓Torrent.by
Поиск
Логин: Регистрация
Пароль: Восстановить пароль
Загрузка...

Комик в городе [01х01-02] (2018) WEBRip

Скачать komik-v-gorode-01h01-02-2018-webrip.torrent
U Магнитная ссылка Размер: 613.38 MB Раздают: 108 Качают: 33 Добавлен: 2018-03-05 11:26:11
Комик в городе [01х01-02] (2018) WEBRip

Комик в городе

Страна: Россия
Производство: Comedy Club Production, Телеканал ТНТ
Год выпуска: 2018
Жанр:  ТВ-шоу, юмор, Stand up
Продолжительность: х ~00:22:00

Ведущий: Руслан Белый
Описание: «Комик в городе» - юмористическая программа о жизни в стране, в которой рассказывается не только о Москве, но и о жизни в регионах с точки зрения жителей самих регионов. Руслан Белый объездил несколько десятков городов России, чтобы в каждом из них дать юмористический концерт.

Перевод: не требуется (оригинал)
Субтитры: нет

Качество: WEBRip
Формат: AVI
Видео кодек: XviD
Аудио кодек: АС3
Видео: 720x400 (16:9), 25.000 fps, XviD build 73 ~1 700 kbps avg
Аудио: 48.0 kHz, AC3 Dolby Digital, 2/0 (L,R) ch, ~192 kbps
[+] Media Info

General
Complete name                  : Komik.v.gorode1. Комик в городе.WEBRip.avi
Format                         : AVI
Format/Info                    : Audio Video Interleave
File size                      : 296 MiB
Duration                       : 21mn 46s
Overall bit rate               : 1 902 Kbps
Writing application            : VirtualDubMod 1.5.10.3 | (build 2550/release)
Writing library                : VirtualDubMod build 2550/release

Video
ID                             : 0
Format                         : MPEG-4 Visual
Format profile                 : Advanced Simple@L5
Format settings, BVOP          : 1
Format settings, QPel          : Yes
Format settings, GMC           : No warppoints
Format settings, Matrix        : Default (MPEG)
Codec ID                       : XVID
Codec ID/Hint                  : XviD
Duration                       : 21mn 46s
Bit rate                       : 1 700 Kbps
Width                          : 720 pixels
Height                         : 400 pixels
Display aspect ratio           : 16:9
Frame rate                     : 25.000 fps
Color space                    : YUV
Chroma subsampling             : 4:2:0
Bit depth                      : 8 bits
Scan type                      : Progressive
Compression mode               : Lossy
Bits/(Pixel*Frame)             : 0.236
Stream size                    : 265 MiB (89%)
Writing library                : XviD 73

Audio
ID                             : 1
Format                         : AC-3
Format/Info                    : Audio Coding 3
Mode extension                 : CM (complete main)
Format settings, Endianness    : Big
Codec ID                       : 2000
Duration                       : 21mn 46s
Bit rate mode                  : Constant
Bit rate                       : 192 Kbps
Channel(s)                     : 2 channels
Channel positions              : Front: L R
Sampling rate                  : 48.0 KHz
Compression mode               : Lossy
Stream size                    : 29.9 MiB (10%)
Alignment                      : Split accross interleaves
Interleave, duration           : 40 ms (1.00 video frame)
Interleave, preload duration   : 500 ms



Скриншоты:
[+] Всего файлов в раздаче - 2:
02. Комик в городе.WEBRip.avi317.23 MB
01. Комик в городе.WEBRip.avi296.16 MB

Текущая раздача:
ДатаКомментарии    РазмерПиры
2018-03-05 U Комик в городе [01х01-02] (2018) WEBRip 613.38 MB ↑ 108 ↓ 33

Показать еще раздачи по запросу комик:
Вчера U Комик в городе. Краснодар [выпуск 11-й от 20.05] (2018) HDTV 1080i 802.73 MB ↑ 40 ↓ 18
2018-05-03 U Комик в городе [01х01-09] (2018) SATRip 2.60 GB ↑ 55 ↓ 100
2018-03-26 U Комик в городе [01х01-06] (2018) SATRip 1.76 GB ↑ 70 ↓ 167
2018-03-19 U Комик в городе [01х01-05] (2018) SATRip 1.49 GB ↑ 69 ↓ 115
2018-03-12 U Комик в городе [01х01-04] (2018) SATRip 1.17 GB ↑ 305 ↓ 328
2017-06-03 U Самый смешной комик / Huan le xi ju ren (2017) WEBRip 720р | L 2.72 GB ↑ 138 ↓ 54
2017-06-03 U Самый смешной комик / Huan Le Xi Ju Ren (2017) WEBRip | L 1.37 GB ↑ 102 ↓ 60

Отзывы
Зарегистрируйтесь чтобы добавить комментарий.
Обратная связь
Copyleft ©