↑↓Torrent.by
Поиск
Логин: Регистрация
Пароль: Восстановить пароль
Загрузка...

Короче / Downsizing (2017) HDRip-AVC | L2

Скачать koroche-downsizing-2017-hdrip-avc-l2.torrent
U Магнитная ссылка Размер: 2.80 GB Раздают: 323 Качают: 83 Добавлен: 2018-03-08 18:19:33
Короче / Downsizing (2017) HDRip-AVC | L2

Название: Короче
Оригинальное название: Downsizing
Год выхода: 2017
Жанр: фантастика, драма, комедия

Режиссер: Александр Пэйн

В ролях: Мэтт Дэймон, Кристоф Вальц, Кристен Уиг, Джейсон Судейкис, Удо Кир, Хонг Чау, Рольф Лассгорд, Ингьерд Эгеберг, Сёрен Пильмарк, Джейн Ходишелл

О фильме:
Фантастическая история о неожиданном решении проблемы перенаселения планеты: норвежские ученые придумывают технологию по уменьшению людей, благодаря которой через 200 лет весь мир можно сделать миниатюрным. К тому же мини-жизнь предлагает массу финансовых выгод, так что простой парень Пол и его жена Одри, недолго думая, решают оставить свое унылое существование в Омахе и пройти процедуру уменьшения. Это их решение повлечет за собой самые удивительные последствия…

Страна: США
Продолжительность: 02:15:20
Перевод: Любительский (двухголосый закадровый)

Файл
Кодек: x.264
Качество: HDRip-AVC
Видео: AVC, 1024x430 (2.40:1), 23.976 fps, 2320 Kbps
Аудио #1: AC-3, 48.0 KHz, 2 ch, 192 Kbps, CBR (Russian)
Аудио #2: AC-3, 48.0 KHz, 6 ch, 448 Kbps, CBR (English)
Субтитры: Английские

Семпл

Рекламы нет !


[+] MI
Общее
Уникальный идентификатор : 253024449598320944058631013836335593454 (0xBE5ABC85A69FCBB4AFD9B8FFF5CBB7EE)
Полное имя : Downsizing.2017.HDRip.AVC.mkv
Формат : Matroska
Версия формата : Version 4 / Version 2
Размер файла : 2,80 Гбайт
Продолжительность : 2 ч. 15 м.
Общий поток : 2962 Кбит/сек
Дата кодирования : UTC 2018-03-08 12:30:57
Программа кодирования : mkvmerge v8.3.0 ('Over the Horizon') 64bit
Библиотека кодирования : libebml v1.3.1 + libmatroska v1.4.2

Видео
Идентификатор : 1
Формат : AVC
Формат/Информация : Advanced Video Codec
Профиль формата : High@L3.1
Параметр CABAC формата : Да
Параметр ReFrames формата : 1 кадр
Идентификатор кодека : V_MPEG4/ISO/AVC
Продолжительность : 2 ч. 15 м.
Битрейт : 2320 Кбит/сек
Ширина : 1024 пикселя
Высота : 430 пикселей
Соотношение сторон : 2,40:1
Режим частоты кадров : Переменный
Частота кадров : 23,976 кадра/сек
Цветовое пространство : YUV
Субдискретизация насыщенности : 4:2:0
Битовая глубина : 8 бит
Тип развёртки : Прогрессивная
Бит/(Пиксели*Кадры) : 0.220
Размер потока : 2,19 Гбайт (78%)
Default : Да
Forced : Нет

Аудио #1
Идентификатор : 2
Формат : AC-3
Формат/Информация : Audio Coding 3
Расширение режима : CM (complete main)
Параметр Endianness формата : Big
Идентификатор кодека : A_AC3
Продолжительность : 2 ч. 15 м.
Вид битрейта : Постоянный
Битрейт : 192 Кбит/сек
Каналы : 2 канала
Расположение каналов : Front: L R
Частота : 48,0 КГц
Частота кадров : 31,250 кадров/сек (1536 spf)
Битовая глубина : 16 бит
Метод сжатия : С потерями
Размер потока : 186 Мбайт (6%)
Заголовок : L2
Язык : Russian
Default : Да
Forced : Нет

Аудио #2
Идентификатор : 3
Формат : AC-3
Формат/Информация : Audio Coding 3
Расширение режима : CM (complete main)
Параметр Endianness формата : Big
Идентификатор кодека : A_AC3
Продолжительность : 2 ч. 15 м.
Вид битрейта : Постоянный
Битрейт : 448 Кбит/сек
Каналы : 6 каналов
Расположение каналов : Front: L C R, Side: L R, LFE
Частота : 48,0 КГц
Частота кадров : 31,250 кадров/сек (1536 spf)
Битовая глубина : 16 бит
Метод сжатия : С потерями
Размер потока : 434 Мбайт (15%)
Язык : English
Default : Нет
Forced : Нет

Текст
Идентификатор : 4
Формат : UTF-8
Идентификатор кодека : S_TEXT/UTF8
Идентификатор кодека/Информация : UTF-8 Plain Text
Продолжительность : 2 ч. 4 м.
Битрейт : 58 бит/сек
Count of elements : 1623
Размер потока : 53,3 Кбайт (0%)
Язык : English
Default : Нет
Forced : Нет

Меню
00:00:00.000 : en:00:00:00.000
00:06:13.540 : en:00:06:13.540
00:10:38.346 : en:00:10:38.346
00:16:24.483 : en:00:16:24.483
00:22:14.667 : en:00:22:14.667
00:30:23.905 : en:00:30:23.905
00:38:44.364 : en:00:38:44.364
00:42:38.598 : en:00:42:38.598
00:47:36.687 : en:00:47:36.687
00:55:08.722 : en:00:55:08.722
01:04:35.830 : en:01:04:35.830
01:13:11.596 : en:01:13:11.596
01:21:13.202 : en:01:21:13.202
01:28:00.775 : en:01:28:00.775
01:33:25.308 : en:01:33:25.308
01:41:42.513 : en:01:41:42.513
01:44:11.871 : en:01:44:11.871
01:51:54.374 : en:01:51:54.374
01:58:36.443 : en:01:58:36.443
02:08:58.856 : en:02:08:58.856



Скриншоты:
[+] Всего файлов в раздаче - 1:
Downsizing.2017.HDRip.AVC.mkv2.80 GB

Текущая раздача:
ДатаКомментарии    РазмерПиры
2018-03-08 U Короче / Downsizing (2017) HDRip-AVC | L2 2.80 GB ↑ 323 ↓ 83

Показать еще раздачи по запросу короче:
2018-04-06 U Короче / Downsizing (2017) BDRip от MegaPeer | Лицензия 795.93 MB ↑ 56 ↓ 17
2018-03-26 U Короче / Downsizing (2017) BDRip от ExKinoRay | Лицензия 2.18 GB ↑ 113 ↓ 34
2018-03-25 U Короче / Downsizing (2017) BDRip от ExKinoRay | Лицензия 1.46 GB ↑ 220 ↓ 60
2018-03-24 U Короче / Downsizing (2017) HDRip от Scarabey | Лицензия 1.45 GB ↑ 228 ↓ 54
2018-03-24 U Короче / Downsizing (2017) HDRip от Generalfilm | КПК | Лицензия 514.68 MB ↑ 53 ↓ 20
2018-03-23 U Короче / Downsizing (2017) BDRip-AVC от HELLYWOOD | Лицензия 2.91 GB ↑ 114 ↓ 71
2018-03-23 U Короче / Downsizing (2017) BDRip 720p от HELLYWOOD | Лицензия 5.76 GB ↑ 218 ↓ 159

Отзывы
Зарегистрируйтесь чтобы добавить комментарий.
Обратная связь
Copyleft ©