↑↓Torrent.by
Поиск
Логин: Регистрация
Пароль: Восстановить пароль
Загрузка...

Загнанный / Battle of the Drones (2017) WEBRip 720p | L2

Скачать zagnannyy-battle-of-the-drones-2017-webrip-720p-l2.torrent
U Магнитная ссылка Размер: 1.86 GB Раздают: 369 Качают: 97 Добавлен: 2018-03-09 17:29:29
Загнанный / Battle of the Drones (2017) WEBRip 720p | L2

Название: Загнанный
Оригинальное название: Battle of the Drones

Год выхода: 2017
Жанр: боевик
Режиссер: Мишель Гулд
В ролях: Доминик Суэйн, Наташа Мальте, Майкл Паре, Джейсон Эрлз, Луис Мэндилор, Олег Тактаров, Ричард Рейд, Дэн Сауфуорф, Стив Паунд, Джо Марр и другие
О фильме:
Смесь "Неудержимых" и Команды «А» превращается в безудержный боевик про группу опытных наёмников, которых предаёт правительство США. Оказавшись в засаде, они вынуждены отбиваться от целой армии людей-киборгов.

Страна: США,  FilmTiger, Hollywood Media Bridge
Продолжительность: 01:34:13
Перевод: Любительский (двухголосый закадровый) | HiWay Grope

Файл
Кодек: MPEG-4 AVC/H.264
Качество: WEBRip 720p
Видео: 1280x536, 23.976 fps, ~2386 kbps, 0.145 bit/pixel
Звук:
Аудио rus: AC3, 48 kHz, 6 ch, 384 Kbps
Субтитры: отсутствуют

Реклама: присутствует

Семпл

Релиз от: HiWay Grope


[+] MediaInfo:

General
Unique ID                                : 230185929992835952238402376957546914917 (0xAD2C3291A7126363B5F40352E95AE465)
Complete name                            : E:Battle.of.the.Drones.2017.720p.WEBRip.HiWayGropeBattle.of.the.Drones.2017.720p.WEBRip.HiWayGrope.mkv
Format                                   : Matroska
Format version                           : Version 4 / Version 2
File size                                : 1.86 GiB
Duration                                 : 1h 34mn
Overall bit rate                         : 2 826 Kbps
Encoded date                             : UTC 2018-03-09 07:42:46
Writing application                      : mkvmerge v18.0.0 ('Apricity') 64-bit
Writing library                          : libebml v1.3.5 + libmatroska v1.4.8

Video
ID                                       : 1
Format                                   : AVC
Format/Info                              : Advanced Video Codec
Format profile                           : Main@L4.1
Format settings, CABAC                   : Yes
Format settings, ReFrames                : 4 frames
Codec ID                                 : V_MPEG4/ISO/AVC
Duration                                 : 1h 34mn
Bit rate                                 : 2 386 Kbps
Width                                    : 1 280 pixels
Height                                   : 536 pixels
Display aspect ratio                     : 2.40:1
Frame rate mode                          : Constant
Frame rate                               : 23.976 (24000/1001) fps
Standard                                 : NTSC
Color space                              : YUV
Chroma subsampling                       : 4:2:0
Bit depth                                : 8 bits
Scan type                                : Progressive
Bits/(Pixel*Frame)                       : 0.145
Stream size                              : 1.57 GiB (84%)
Language                                 : English
Default                                  : Yes
Forced                                   : No
Color range                              : Limited
Color primaries                          : BT.601 NTSC
Transfer characteristics                 : BT.601
Matrix coefficients                      : BT.601

Audio
ID                                       : 2
Format                                   : AC-3
Format/Info                              : Audio Coding 3
Mode extension                           : CM (complete main)
Format settings, Endianness              : Big
Codec ID                                 : A_AC3
Duration                                 : 1h 34mn
Bit rate mode                            : Constant
Bit rate                                 : 384 Kbps
Channel(s)                               : 6 channels
Channel positions                        : Front: L C R, Side: L R, LFE
Sampling rate                            : 48.0 KHz
Frame rate                               : 31.250 fps (1536 spf)
Compression mode                         : Lossy
Stream size                              : 259 MiB (14%)
Title                                    : rus
Language                                 : Russian
Default                                  : Yes
Forced                                   : No




Скриншоты:
[+] Всего файлов в раздаче - 1:
Battle.of.the.Drones.2017.720p.WEBRip.HiWayGrope.mkv1.86 GB

Текущая раздача:
ДатаКомментарии    РазмерПиры
2018-03-09 U Загнанный / Battle of the Drones (2017) WEBRip 720p | L2 1.86 GB ↑ 369 ↓ 97

Похожие раздачи по запросу - загнанный:
2018-03-14 U Загнанный / Battle of the Drones (2017) WEBRip 1080p | L2 3.64 GB ↑ 108 ↓ 91
2018-03-09 U Загнанный / Battle of the Drones (2017) WEBRip | L2 1.37 GB ↑ 538 ↓ 182

Отзывы
Зарегистрируйтесь чтобы добавить комментарий.
Обратная связь
Copyleft ©