↑↓Torrent.by
Поиск
Логин: Регистрация
Пароль: Восстановить пароль
Загрузка...

Дикарь / Gauguin - Voyage de Tahiti (2017) BDRip 1080p от ExKinoRay | iTunes

Скачать dikar-gauguin-voyage-de-tahiti-2017-bdrip-1080p-ot-exkinoray-itunes.torrent
U Магнитная ссылка Размер: 9.78 GB Раздают: 178 Качают: 166 Добавлен: 2018-03-09 17:29:31
Дикарь / Gauguin - Voyage de Tahiti (2017) BDRip 1080p от ExKinoRay | iTunes

Название: Дикарь
Оригинальное название: Gauguin - Voyage de Tahiti
Год выхода: 2017
Жанр: Драма, мелодрама, биография
Режиссер: Эдуард Делюк
В ролях: Венсан Кассель, Тухэй Адамс, Малик Зиди, Пуа-Тай Хикутини, Пернилла Бергендорф, Марк Барбе, Пол Жансон, Седрик Экхаут, Самуэль Жуи, Скали Делпейрат

О фильме:
Устав от богемной жизни Парижа, Поль Гоген отправляется на другой конец света. В поисках вдохновения и новых красок жизни он оказывается на Таити. Там он встречает Техуру — дикарку, богиню, объект непреодолимой страсти и испепеляющей ревности, музу, которой мир обязан появлением гениальных творений великого художника.

Страна: Франция
Студия: Move Movie, StudioCanal, NJJ Entertainment, Canal+, 120 Films, Ciné+
Продолжительность: 01:40:51
Перевод: Дублированный | iTunes

Качество: BDRip 1080p
Видео: MPEG-4 AVC, 1920x804, 12.0 Mbit/s, 24.000 fps
Звук:
Аудио #01: 48 kHz, AC3, 5.1, 384 Kbps | Дублированный | iTunes | RUS |
Аудио #02: 48 kHz, DTS, 5.1, 1510 Kbps | Оригинал |  FRA |

Релиз: Автор релиза:


[+] MI
General
Unique ID                   : 79579314282186691853516971283908014908 (0x3BDE6B1E6C991773D14E6EF87C7E333C)
Complete name               : C:Video111Gauguin.2017.BDRip.1080p.ExKinoRay.mkv
Format                      : Matroska
Format version              : Version 4 / Version 2
File size                   : 9.78 GiB
Duration                    : 1 h 40 min
Overall bit rate            : 13.9 Mb/s
Movie name                  : Gauguin 2017 from ExKinoRay
Encoded date                : UTC 2018-03-09 09:55:05
Writing application         : mkvmerge v21.0.0 ('Tardigrades Will Inherit The Earth') 64-bit
Writing library             : libebml v1.3.5 + libmatroska v1.4.8

Video
ID                          : 1
Format                      : AVC
Format/Info                 : Advanced Video Codec
Format profile              : High@L4.1
Format settings             : CABAC / 5 Ref Frames
Format settings, CABAC      : Yes
Format settings, ReFrames   : 5 frames
Codec ID                    : V_MPEG4/ISO/AVC
Duration                    : 1 h 40 min
Bit rate                    : 12.0 Mb/s
Width                       : 1 920 pixels
Height                      : 804 pixels
Display aspect ratio        : 2.40:1
Frame rate mode             : Constant
Frame rate                  : 24.000 FPS
Color space                 : YUV
Chroma subsampling          : 4:2:0
Bit depth                   : 8 bits
Scan type                   : Progressive
Bits/(Pixel*Frame)          : 0.324
Stream size                 : 8.44 GiB (86%)
Writing library             : x264 core 148 r2705 3f5ed56
Encoding settings           : cabac=1 / ref=5 / deblock=1:-2:-2 / analyse=0x3:0x133 / me=umh / subme=11 / psy=1 / psy_rd=1.05:0.05 / mixed_ref=1 / me_range=48 / chroma_me=1 / trellis=2 / 8x8dct=1 / cqm=0 / deadzone=21,11 / fast_pskip=0 / chroma_qp_offset=-3 / threads=12 / lookahead_threads=4 / sliced_threads=0 / nr=0 / decimate=0 / interlaced=0 / bluray_compat=0 / constrained_intra=0 / bframes=8 / b_pyramid=2 / b_adapt=2 / b_bias=0 / direct=3 / weightb=1 / open_gop=0 / weightp=2 / keyint=240 / keyint_min=24 / scenecut=40 / intra_refresh=0 / rc_lookahead=50 / rc=2pass / mbtree=0 / bitrate=12000 / ratetol=1.0 / qcomp=0.60 / qpmin=0 / qpmax=69 / qpstep=4 / cplxblur=20.0 / qblur=0.5 / vbv_maxrate=50000 / vbv_bufsize=62500 / nal_hrd=none / filler=0 / ip_ratio=1.40 / pb_ratio=1.30 / aq=3:0.80
Language                    : French
Default                     : Yes
Forced                      : No

Audio #1
ID                          : 2
Format                      : AC-3
Format/Info                 : Audio Coding 3
Codec ID                    : A_AC3
Duration                    : 1 h 40 min
Bit rate mode               : Constant
Bit rate                    : 384 kb/s
Channel(s)                  : 6 channels
Channel positions           : Front: L C R, Side: L R, LFE
Sampling rate               : 48.0 kHz
Frame rate                  : 31.250 FPS (1536 SPF)
Bit depth                   : 16 bits
Compression mode            : Lossy
Stream size                 : 277 MiB (3%)
Title                       : iTunes
Language                    : Russian
Service kind                : Complete Main
Default                     : Yes
Forced                      : Yes

Audio #2
ID                          : 3
Format                      : DTS
Format/Info                 : Digital Theater Systems
Codec ID                    : A_DTS
Duration                    : 1 h 40 min
Bit rate mode               : Constant
Bit rate                    : 1 509 kb/s
Channel(s)                  : 6 channels
Channel positions           : Front: L C R, Side: L R, LFE
Sampling rate               : 48.0 kHz
Frame rate                  : 93.750 FPS (512 SPF)
Bit depth                   : 24 bits
Compression mode            : Lossy
Stream size                 : 1.06 GiB (11%)
Title                       : Original
Language                    : French
Default                     : No
Forced                      : No

Menu
00:00:00.000                : en:00:00:00.000
00:09:59.333                : en:00:09:59.333
00:15:21.083                : en:00:15:21.083
00:23:54.042                : en:00:23:54.042
00:31:09.208                : en:00:31:09.208
00:41:34.000                : en:00:41:34.000
00:50:21.333                : en:00:50:21.333
01:01:29.083                : en:01:01:29.083
01:08:59.333                : en:01:08:59.333
01:17:04.375                : en:01:17:04.375
01:26:18.250                : en:01:26:18.250
01:36:58.000                : en:01:36:58.000



Скриншоты:
[+] Всего файлов в раздаче - 1:
Gauguin.2017.BDRip.1080p.ExKinoRay.mkv9.78 GB

Текущая раздача:
ДатаКомментарии    РазмерПиры
2018-03-09 U Дикарь / Gauguin - Voyage de Tahiti (2017) BDRip 1080p от ExKinoRay | iTunes 9.78 GB ↑ 178 ↓ 166

Показать еще раздачи по запросу дикарь:
2018-04-14 U Дикарь / Gauguin - Voyage de Tahiti (2017) BDRip от ExKinoRay | iTunes 1.41 GB ↑ 59 ↓ 13
2018-03-10 U Дикарь / Gauguin - Voyage de Tahiti (2017) BDRemux 1080p от ExKinoRay | iTunes 23.94 GB ↑ 49 ↓ 37
2018-03-10 U Дикарь / Gauguin - Voyage de Tahiti (2017) BDRip от MegaPeer | iTunes 744.96 MB ↑ 56 ↓ 18
2018-03-09 U Дикарь / Gauguin - Voyage de Tahiti (2017) BDRip 720p от ExKinoRay | iTunes 5.01 GB ↑ 228 ↓ 92
2018-03-09 U Дикарь / Gauguin - Voyage de Tahiti (2017) BDRip от MegaPeer | iTunes 1.42 GB ↑ 279 ↓ 145
2018-03-06 U Дикарь / Gauguin - Voyage de Tahiti (2017) DVDRip от NovaLan | D | Line 1.46 GB ↑ 86 ↓ 18
2018-03-03 U Дикарь / Гоген. В поисках рая / Gauguin - Voyage de Tahiti (2017) WEBRip 720p | D | Line 2.51 GB ↑ 296 ↓ 152

Отзывы
Зарегистрируйтесь чтобы добавить комментарий.
Обратная связь
Copyleft ©