↑↓Torrent.by
Поиск
Логин: Регистрация
Пароль: Восстановить пароль
Загрузка...

Форма воды / The Shape of Water (2017) BDRemux 2160p от ExKinoRay | 4K | HDR | iTunes

Скачать forma-vody-the-shape-of-water-2017-bdremux-2160p-ot-exkinoray-4k-hdr-itunes.torrent
U Магнитная ссылка Размер: 48.49 GB Раздают: 167 Качают: 223 Добавлен: 2018-03-09 18:45:45
Форма воды / The Shape of Water (2017) BDRemux 2160p от ExKinoRay | 4K | HDR | iTunes

Название: Форма воды
Оригинальное название: The Shape of Water
Год выхода: 2017
Жанр: Фэнтези, драма, приключения
Режиссер: Гильермо Дель Торо
В ролях: Салли Хокинс, Майкл Шеннон, Ричард Дженкинс, Октавия Спенсер, Майкл Стулбарг, Даг Джонс, Дэвид Хьюлетт, Ник Сирси, Стюарт Арнотт, Найджел Беннетт

О фильме:
Действие разворачивается в 1963 году. Главная героиня — немая уборщица в научной лаборатории. В стенах секретного учреждения идёт работа по изучению отловленного человека-амфибии. Женщина влюбляется в мутанта и помогает ему бежать…

Страна: Канада, США
Студия: Fox Searchlight Pictures
Продолжительность: 02:03:19
Перевод: Дублированный | iTunes

Качество: BDRemux 2160p
Видео: MPEG-H HEVC HDR Video, 3840x2160, 51.8 Mbit/s, 23.976 fps
Звук:
Аудио #01: 48 kHz, AC3, 5.1, 384 Kbps | Дублированный | iTunes | RUS |
Аудио #02: 48 kHz, AC3, 2.0, 224 Kbps | Дублированный | iTunes | UKR |
Аудио #03: 48 kHz, DTS-HD MA, 5.1, 3840 Kbps | Оригинал |  ENG |
Субтитры: Русские (forced, full), украинские (forced, full), английские

Релиз: Автор релиза:


[+] MI
General
Unique ID                   : 87664471730038469410547659649767311435 (0x41F390286516CC836A92A816E97A084B)
Complete name               : C:Video111The.Shape.of.Water.2017.BDREMUX.2160p.4K.UltraHD.HEVC.HDR.ExKinoRay.mkv
Format                      : Matroska
Format version              : Version 4 / Version 2
File size                   : 48.5 GiB
Duration                    : 2 h 3 min
Overall bit rate            : 56.3 Mb/s
Movie name                  : The Shape of Water 2017 from ExKinoRay
Encoded date                : UTC 2018-03-08 23:48:56
Writing application         : mkvmerge v21.0.0 ('Tardigrades Will Inherit The Earth') 64-bit
Writing library             : libebml v1.3.5 + libmatroska v1.4.8

Video
ID                          : 1
Format                      : HEVC
Format/Info                 : High Efficiency Video Coding
Format profile              : Main 10@L5.1@High
Codec ID                    : V_MPEGH/ISO/HEVC
Duration                    : 2 h 3 min
Bit rate                    : 51.8 Mb/s
Width                       : 3 840 pixels
Height                      : 2 160 pixels
Display aspect ratio        : 16:9
Frame rate mode             : Constant
Frame rate                  : 23.976 (24000/1001) FPS
Color space                 : YUV
Chroma subsampling          : 4:2:0 (Type 2)
Bit depth                   : 10 bits
Bits/(Pixel*Frame)          : 0.261
Stream size                 : 44.7 GiB (92%)
Language                    : English
Default                     : Yes
Forced                      : No
Color range                 : Limited
Color primaries             : BT.2020
Transfer characteristics    : PQ
Matrix coefficients         : BT.2020 non-constant
Mastering display color pri : Display P3
Mastering display luminance : min: 0.0050 cd/m2, max: 1000 cd/m2

Audio #1
ID                          : 2
Format                      : AC-3
Format/Info                 : Audio Coding 3
Codec ID                    : A_AC3
Duration                    : 2 h 3 min
Bit rate mode               : Constant
Bit rate                    : 384 kb/s
Channel(s)                  : 6 channels
Channel positions           : Front: L C R, Side: L R, LFE
Sampling rate               : 48.0 kHz
Frame rate                  : 31.250 FPS (1536 SPF)
Bit depth                   : 16 bits
Compression mode            : Lossy
Stream size                 : 339 MiB (1%)
Title                       : iTunes
Language                    : Russian
Service kind                : Complete Main
Default                     : Yes
Forced                      : Yes

Audio #2
ID                          : 3
Format                      : AC-3
Format/Info                 : Audio Coding 3
Codec ID                    : A_AC3
Duration                    : 2 h 3 min
Bit rate mode               : Constant
Bit rate                    : 224 kb/s
Channel(s)                  : 2 channels
Channel positions           : Front: L R
Sampling rate               : 48.0 kHz
Frame rate                  : 31.250 FPS (1536 SPF)
Bit depth                   : 16 bits
Compression mode            : Lossy
Stream size                 : 198 MiB (0%)
Title                       : iTunes
Language                    : Ukrainian
Service kind                : Complete Main
Default                     : No
Forced                      : No

Audio #3
ID                          : 4
Format                      : DTS
Format/Info                 : Digital Theater Systems
Format profile              : MA / Core
Codec ID                    : A_DTS
Duration                    : 2 h 3 min
Bit rate mode               : Variable / Constant
Bit rate                    : 3 840 kb/s / 1 509 kb/s
Channel(s)                  : 6 channels
Channel positions           : Front: L C R, Side: L R, LFE
Sampling rate               : 48.0 kHz
Frame rate                  : 93.750 FPS (512 SPF)
Bit depth                   : 24 bits
Compression mode            : Lossless / Lossy
Stream size                 : 3.30 GiB (7%)
Title                       : Original
Language                    : English
Default                     : No
Forced                      : No

Text #1
ID                          : 5
Format                      : UTF-8
Codec ID                    : S_TEXT/UTF8
Codec ID/Info               : UTF-8 Plain Text
Duration                    : 1 h 58 min
Bit rate                    : 1 b/s
Count of elements           : 61
Stream size                 : 1.38 KiB (0%)
Title                       : forced
Language                    : Russian
Default                     : Yes
Forced                      : Yes

Text #2
ID                          : 6
Format                      : UTF-8
Codec ID                    : S_TEXT/UTF8
Codec ID/Info               : UTF-8 Plain Text
Duration                    : 2 h 1 min
Bit rate                    : 69 b/s
Count of elements           : 1264
Stream size                 : 61.8 KiB (0%)
Title                       : full
Language                    : Russian
Default                     : No
Forced                      : No

Text #3
ID                          : 7
Format                      : UTF-8
Codec ID                    : S_TEXT/UTF8
Codec ID/Info               : UTF-8 Plain Text
Duration                    : 1 h 47 min
Bit rate                    : 5 b/s
Count of elements           : 167
Stream size                 : 4.49 KiB (0%)
Title                       : forced
Language                    : Ukrainian
Default                     : No
Forced                      : No

Text #4
ID                          : 8
Format                      : UTF-8
Codec ID                    : S_TEXT/UTF8
Codec ID/Info               : UTF-8 Plain Text
Duration                    : 2 h 1 min
Bit rate                    : 71 b/s
Count of elements           : 1398
Stream size                 : 64.1 KiB (0%)
Title                       : full
Language                    : Ukrainian
Default                     : No
Forced                      : No

Text #5
ID                          : 9
Format                      : UTF-8
Codec ID                    : S_TEXT/UTF8
Codec ID/Info               : UTF-8 Plain Text
Duration                    : 1 h 57 min
Bit rate                    : 67 b/s
Count of elements           : 1016
Stream size                 : 58.2 KiB (0%)
Title                       : forced
Language                    : English
Default                     : No
Forced                      : No

Text #6
ID                          : 10
Format                      : UTF-8
Codec ID                    : S_TEXT/UTF8
Codec ID/Info               : UTF-8 Plain Text
Duration                    : 1 h 47 min
Bit rate                    : 3 b/s
Count of elements           : 169
Stream size                 : 2.51 KiB (0%)
Title                       : full
Language                    : English
Default                     : No
Forced                      : No

Text #7
ID                          : 11
Format                      : UTF-8
Codec ID                    : S_TEXT/UTF8
Codec ID/Info               : UTF-8 Plain Text
Duration                    : 1 h 56 min
Bit rate                    : 43 b/s
Count of elements           : 1307
Stream size                 : 36.8 KiB (0%)
Title                       : SDH
Language                    : English
Default                     : No
Forced                      : No

Menu
00:00:00.000                : en:Chapter 1
00:06:24.467                : en:Chapter 2
00:12:54.774                : en:Chapter 3
00:18:32.987                : en:Chapter 4
00:23:45.591                : en:Chapter 5
00:29:39.653                : en:Chapter 6
00:35:29.836                : en:Chapter 7
00:39:30.535                : en:Chapter 8
00:42:42.435                : en:Chapter 9
00:48:34.036                : en:Chapter 10
00:52:26.935                : en:Chapter 11
00:57:30.197                : en:Chapter 12
01:01:52.542                : en:Chapter 13
01:07:35.551                : en:Chapter 14
01:12:13.496                : en:Chapter 15
01:17:50.791                : en:Chapter 16
01:21:17.122                : en:Chapter 17
01:26:05.911                : en:Chapter 18
01:32:48.480                : en:Chapter 19
01:37:18.750                : en:Chapter 20
01:43:24.115                : en:Chapter 21
01:46:06.610                : en:Chapter 22
01:50:31.667                : en:Chapter 23
01:58:34.858                : en:Chapter 24



Скриншоты:
[+] Всего файлов в раздаче - 1:
The.Shape.of.Water.2017.BDREMUX.2160p.4K.UltraHD.HEVC.HDR.ExKinoRay.mkv48.49 GB

Текущая раздача:
ДатаКомментарии    РазмерПиры
2018-03-09 U Форма воды / The Shape of Water (2017) BDRemux 2160p от ExKinoRay | 4K | HDR | iTunes 48.49 GB ↑ 167 ↓ 223

Показать еще раздачи по запросу форма:
2018-03-16 U Форма воды / The Shape of Water (2017) BDRip-HEVC 1080p | 60 fps | iTunes 7.52 GB ↑ 87 ↓ 58
2018-03-11 U Форма воды / The Shape of Water (2017) BDRip 1080p от qqss44 & MegaPeer | iTunes 2К7.53 GB ↑ 384 ↓ 216
2018-03-09 U Форма воды / The Shape of Water (2017) BDRip-AVC | iTunes 802.20 MB ↑ 134 ↓ 32
2018-03-09 U Форма воды / The Shape of Water (2017) BDRip от ExKinoRay | iTunes 2.13 GB ↑ 91 ↓ 34
2018-03-09 U Форма воды / The Shape of Water (2017) HDRip от Scarabey | iTunes 1К2.12 GB ↑ 499 ↓ 45
2018-03-09 U Форма воды / The Shape of Water (2017) BDRip-HEVC 1080p от HEVC CLUB | iTunes 1К3.28 GB ↑ 206 ↓ 93
2018-03-08 U Форма воды / The Shape of Water (2017) BDRip-AVC от HELLYWOOD | iTunes 2.12 GB ↑ 193 ↓ 115

Отзывы
Зарегистрируйтесь чтобы добавить комментарий.
Обратная связь
Copyleft ©