↑↓Torrent.by
Поиск
Логин: Регистрация
Пароль: Восстановить пароль
Загрузка...

Девушка в тумане / La ragazza nella nebbia (2017) HDRip | iTunes

Скачать devushka-v-tumane-la-ragazza-nella-nebbia-2017-hdrip-itunes.torrent
U Магнитная ссылка Размер: 2.05 GB Раздают: 438 Качают: 131 Добавлен: 2018-03-10 08:10:01
Девушка в тумане / La ragazza nella nebbia (2017) HDRip | iTunes

Название: Девушка в тумане
Оригинальное название: La ragazza nella nebbia
Год выхода: 2017
Жанр:  Триллер, криминал
Режиссер: Донато Карризи
В ролях: Тони Сервилло, Жан Рено, Алессио Бони, Лоренцо Рикельми, Галатеа Ранци, Микела Ческон, Лукреция Гидоне, Даниэла Пьяцца, Якопо Ольмо Антинори, Марина Оккьонеро

О фильме:
Холодной зимней ночью психиатра Аугусто Флореса срочно вызывают на работу, чтобы обследовать попавшего в аварию инспектора Фогеля. Инспектор ничего не помнит, на месте аварии ничто не указывает на ее причину и на ее жертв, однако рубашка Фогеля в пятнах свежей крови, и эта кровь не его. В ходе беседы начинает восстанавливаться цепь невероятных событий, начавшихся месяц назад...

Страна: Италия, Германия, Франция
Студия: Colorado Film Production
Продолжительность: 02:08:18
Перевод: Дублированный | iTunes

Файл
Кодек: XviD | Avi
Качество: HDRip
Видео: 1895 kbps,  720x304, 24 fps
Аудио Rus: AC3, 384 kb/s (6 ch)
Субтитры: отсутствуют


[+] MI

Общее
Полное имя                               : D:ЗаготовкиLa.Ragazza.Nella.Nebbia.2017.D.HDRip.21OOMB.avi
Формат                                   : AVI
Формат/Информация                        : Audio Video Interleave
Профиль формата                          : OpenDML
Размер файла                             : 2,05 Гбайт
Продолжительность                        : 2 ч. 8 м.
Общий поток                              : 2291 Кбит/сек
Программа кодирования                    : VirtualDubMod 1.5.10.2 (build 2540/release)
Библиотека кодирования                   : VirtualDubMod build 2540/release

Видео
Идентификатор                            : 0
Формат                                   : MPEG-4 Visual
Профиль формата                          : Advanced Simple@L5
Настройки формата                        : BVOP2 / Custom Matrix
Параметр BVOP формата                    : 2
Параметр QPel формата                    : Нет
Параметр GMC формата                     : Без точки перехода
Параметр матрицы формата                 : Выборочная
Идентификатор кодека                     : XVID
Идентификатор кодека/Подсказка           : XviD
Продолжительность                        : 2 ч. 8 м.
Битрейт                                  : 1895 Кбит/сек
Ширина                                   : 720 пикселей
Высота                                   : 304 пикселя
Соотношение сторон                       : 2,35:1
Частота кадров                           : 24,000 кадра/сек
Цветовое пространство                    : YUV
Субдискретизация насыщенности            : 4:2:0
Битовая глубина                          : 8 бит
Тип развёртки                            : Прогрессивная
Метод сжатия                             : С потерями
Бит/(Пиксели*Кадры)                      : 0.361
Размер потока                            : 1,70 Гбайт (83%)
Библиотека кодирования                   : XviD 1.2.1 (UTC 2008-12-04)

Аудио
Идентификатор                            : 1
Формат                                   : AC-3
Формат/Информация                        : Audio Coding 3
Идентификатор кодека                     : 2000
Продолжительность                        : 2 ч. 8 м.
Вид битрейта                             : Постоянный
Битрейт                                  : 384 Кбит/сек
Каналы                                   : 6 каналов
Расположение каналов                     : Front: L C R, Side: L R, LFE
Частота                                  : 48,0 КГц
Частота кадров                           : 31,250 кадров/сек (1536 SPF)
Битовая глубина                          : 16 бит
Метод сжатия                             : С потерями
Размер потока                            : 352 Мбайт (17%)
Выравнивание                             : Разделение по промежуткам
Продолжительность промежутка             : 42  мс. (1,00 видеокадр)
Время предзагрузки промежутка            : 500  мс.




Скриншоты:
[+] Всего файлов в раздаче - 1:
La.Ragazza.Nella.Nebbia.2017.D.HDRip.21OOMB.avi2.05 GB

Текущая раздача:
ДатаКомментарии    РазмерПиры
2018-03-10 U Девушка в тумане / La ragazza nella nebbia (2017) HDRip | iTunes 2.05 GB ↑ 438 ↓ 131

Показать еще раздачи по запросу девушка:
2018-09-26 U Навсегда моя девушка / Forever My Girl (2018) BDRip 720p | iTunes 3.80 GB ↑ 136 ↓ 47
2018-09-10 U Девушка в тумане / La ragazza nella nebbia (2017) BDRip-AVC от OlLanDGroup | iTunes 1.40 GB ↑ 95 ↓ 25
2018-08-07 U Девушка в ящике / Girl in the Box (2016) WEB-DLRip | L1 1.47 GB ↑ 26 ↓ 16
2018-08-07 U Девушка в ящике / Girl in the Box (2016) WEB-DL 720р | L1 2.39 GB ↑ 36 ↓ 7
2018-08-07 U Девушка в ящике / Girl in the Box (2016) WEB-DL 1080р | L1 6.02 GB ↑ 27 ↓ 3
2018-08-04 U Девушка в ящике / Girl in the Box (2016) WEBRip | L1 707.09 MB ↑ 104 ↓ 26
2018-07-23 U Девушка из Монако / La fille de Monaco (2008) DVDRip-AVC от ExKinoRay | D 1.66 GB ↑ 62 ↓ 17

Отзывы
Зарегистрируйтесь чтобы добавить комментарий.
Обратная связь
Copyleft ©