↑↓Torrent.by
Поиск
Логин: Регистрация
Пароль: Восстановить пароль
Загрузка...

Боевая песня / Mukoku (2017) WEBRip | L2

Скачать boevaya-pesnya-mukoku-2017-webrip-l2.torrent
U Магнитная ссылка Размер: 1.49 GB Раздают: 49 Качают: 21 Добавлен: 2018-03-10 08:11:19
Боевая песня / Mukoku (2017) WEBRip | L2

Название: Боевая песня
Оригинальное название: Mukoku

Год выхода: 2017
Жанр: боевик, приключения
Режиссер: Кадзуёси Кумакири
В ролях: Го Аяно, Нидзиро Мураками, Ацуко Маэда, Дзюн Фубуки, Каору Кобаяси, Акира Эмото и другие
О фильме:
Отец Кэнго Ятабэ был знаменитым мастером кэндо, но теперь он — практически овощ. Кэнго и сам был прежде перспективным фехтовальщиком, но после несчастного случая, постигшего его семью, он бросил бокэн, закрыл додзё, работает теперь охранником в метро и сильно пьёт. Случайное знакомство со старшеклассником и начинающим рэппером Ханэдой, демонстрирующим редкой силы талант во владении деревянным мечом, вынуждает Кэнго и самому вернуться к тренировкам.

Страна: Япония
Продолжительность: 02:06:31
Перевод: Любительский (двухголосый закадровый) | HiWay Grope

Файл
Кодек: XviD
Качество: WEBRip
Видео: 720x304, 23.976 fps, ~1291 kbps, 0.25 bit/pixel
Звук:
Аудио rus: AC3, 48 kHz, 6 ch, 384 Kbps
Субтитры: отсутствуют

Реклама: присутствует

Семпл

Релиз от: HiWay Grope


[+] MediaInfo:

General
Complete name                            : E:Mukoku.2017.WEBRip.HiWayGropeMukoku.2017.WEBRip.HiWayGrope.avi
Format                                   : AVI
Format/Info                              : Audio Video Interleave
File size                                : 1.49 GiB
Duration                                 : 2h 6mn
Overall bit rate                         : 1 685 Kbps
Writing application                      : VirtualDubMod 1.5.10.3 (build 2550/release)
Writing library                          : VirtualDubMod build 2550/release

Video
ID                                       : 0
Format                                   : MPEG-4 Visual
Format profile                           : Advanced Simple@L5
Format settings, BVOP                    : 1
Format settings, QPel                    : No
Format settings, GMC                     : No warppoints
Format settings, Matrix                  : Default (MPEG)
Codec ID                                 : XVID
Codec ID/Hint                            : XviD
Duration                                 : 2h 6mn
Bit rate                                 : 1 292 Kbps
Width                                    : 720 pixels
Height                                   : 304 pixels
Display aspect ratio                     : 2.35:1
Frame rate                               : 23.976 (23976/1000) fps
Color space                              : YUV
Chroma subsampling                       : 4:2:0
Bit depth                                : 8 bits
Scan type                                : Progressive
Compression mode                         : Lossy
Bits/(Pixel*Frame)                       : 0.246
Stream size                              : 1.14 GiB (77%)
Writing library                          : XviD 73

Audio
ID                                       : 1
Format                                   : AC-3
Format/Info                              : Audio Coding 3
Mode extension                           : CM (complete main)
Format settings, Endianness              : Big
Codec ID                                 : 2000
Duration                                 : 2h 6mn
Bit rate mode                            : Constant
Bit rate                                 : 384 Kbps
Channel(s)                               : 6 channels
Channel positions                        : Front: L C R, Side: L R, LFE
Sampling rate                            : 48.0 KHz
Frame rate                               : 31.250 fps (1536 spf)
Compression mode                         : Lossy
Stream size                              : 348 MiB (23%)
Alignment                                : Split accross interleaves
Interleave, duration                     : 42 ms (1.00 video frame)
Interleave, preload duration             : 500 ms




Скриншоты:
[+] Всего файлов в раздаче - 1:
Mukoku.2017.WEBRip.HiWayGrope.avi1.49 GB

Текущая раздача:
ДатаКомментарии    РазмерПиры
2018-03-10 U Боевая песня / Mukoku (2017) WEBRip | L2 1.49 GB ↑ 49 ↓ 21

Показать еще раздачи по запросу боевая:
2018-05-08 U Антология - Книжная серия: Боевая фантастика [541 книга] (2005-2018) FB2 839.46 MB ↑ 184 ↓ 39
2018-02-09 U Антология - Книжная серия: Боевая фантастика [529 книг] (2005-2018) FB2 797.80 MB ↑ 475 ↓ 119
2018-01-03 U Антология - Книжная серия: Боевая фантастика [525 книг] (2005-2017) FB2 777.98 MB ↑ 519 ↓ 51
2017-12-02 U Антология - Книжная серия: Боевая фантастика [523 книги] (2005-2017) FB2 778.90 MB ↑ 132 ↓ 36
2017-11-04 U Антология - Книжная серия: Боевая фантастика [521 книга] (2005-2017) FB2 776.16 MB ↑ 392 ↓ 37
2017-07-31 U Антология - Книжная серия: Боевая фантастика [513 книг] (2005-2017) FB2 765.09 MB ↑ 354 ↓ 55
2017-07-19 U Антология - Книжная серия: Боевая фантастика [512 книг] (2005-2017) FB2 763.85 MB ↑ 234 ↓ 22

Отзывы
Зарегистрируйтесь чтобы добавить комментарий.
Обратная связь
Copyleft ©