↑↓Torrent.by
Поиск
Логин: Регистрация
Пароль: Восстановить пароль
Загрузка...

Дикарь / Gauguin - Voyage de Tahiti (2017) BDRemux 1080p от ExKinoRay | iTunes

Скачать dikar-gauguin-voyage-de-tahiti-2017-bdremux-1080p-ot-exkinoray-itunes.torrent
U Магнитная ссылка Размер: 23.94 GB Раздают: 49 Качают: 37 Добавлен: 2018-03-10 08:11:28
Дикарь / Gauguin - Voyage de Tahiti (2017) BDRemux 1080p от ExKinoRay | iTunes

Название: Дикарь
Оригинальное название: Gauguin - Voyage de Tahiti
Год выхода: 2017
Жанр: Драма, мелодрама, биография
Режиссер: Эдуард Делюк
В ролях: Венсан Кассель, Тухэй Адамс, Малик Зиди, Пуа-Тай Хикутини, Пернилла Бергендорф, Марк Барбе, Пол Жансон, Седрик Экхаут, Самуэль Жуи, Скали Делпейрат

О фильме:
Устав от богемной жизни Парижа, Поль Гоген отправляется на другой конец света. В поисках вдохновения и новых красок жизни он оказывается на Таити. Там он встречает Техуру — дикарку, богиню, объект непреодолимой страсти и испепеляющей ревности, музу, которой мир обязан появлением гениальных творений великого художника.

Страна: Франция
Студия: Move Movie, StudioCanal, NJJ Entertainment, Canal+, 120 Films, Ciné+
Продолжительность: 01:40:51
Перевод: Дублированный | iTunes

Качество: BDRemux 1080p
Видео: MPEG-4 AVC, 1920x1080, 29.8 Mbit/s, 24.000 fps
Звук:
Аудио #01: 48 kHz, AC3, 5.1, 384 Kbps | Дублированный | iTunes | RUS |
Аудио #02: 48 kHz, DTS-HD MA, 5.1, 3840 Kbps | Оригинал |  FRA |

Релиз: Автор релиза:


[+] MI
General
Unique ID                   : 330182214377276869360196305833592523624 (0xF866C8085836FB63D007A7DE6C5E8B68)
Complete name               : C:Video111Gauguin.2017.BDREMUX.1080p.ExKinoRay.mkv
Format                      : Matroska
Format version              : Version 4 / Version 2
File size                   : 23.9 GiB
Duration                    : 1 h 40 min
Overall bit rate mode       : Variable
Overall bit rate            : 34.0 Mb/s
Movie name                  : Gauguin 2017 from ExKinoRay
Encoded date                : UTC 2018-03-09 10:18:53
Writing application         : mkvmerge v21.0.0 ('Tardigrades Will Inherit The Earth') 64-bit
Writing library             : libebml v1.3.5 + libmatroska v1.4.8

Video
ID                          : 1
Format                      : AVC
Format/Info                 : Advanced Video Codec
Format profile              : High@L4.1
Format settings             : CABAC / 4 Ref Frames
Format settings, CABAC      : Yes
Format settings, ReFrames   : 4 frames
Codec ID                    : V_MPEG4/ISO/AVC
Duration                    : 1 h 40 min
Bit rate mode               : Variable
Bit rate                    : 29.8 Mb/s
Maximum bit rate            : 37.0 Mb/s
Width                       : 1 920 pixels
Height                      : 1 080 pixels
Display aspect ratio        : 16:9
Frame rate mode             : Constant
Frame rate                  : 24.000 FPS
Color space                 : YUV
Chroma subsampling          : 4:2:0
Bit depth                   : 8 bits
Scan type                   : Progressive
Bits/(Pixel*Frame)          : 0.598
Stream size                 : 21.0 GiB (88%)
Language                    : French
Default                     : Yes
Forced                      : No

Audio #1
ID                          : 2
Format                      : AC-3
Format/Info                 : Audio Coding 3
Codec ID                    : A_AC3
Duration                    : 1 h 40 min
Bit rate mode               : Constant
Bit rate                    : 384 kb/s
Channel(s)                  : 6 channels
Channel positions           : Front: L C R, Side: L R, LFE
Sampling rate               : 48.0 kHz
Frame rate                  : 31.250 FPS (1536 SPF)
Bit depth                   : 16 bits
Compression mode            : Lossy
Stream size                 : 277 MiB (1%)
Title                       : iTunes
Language                    : Russian
Service kind                : Complete Main
Default                     : Yes
Forced                      : Yes

Audio #2
ID                          : 3
Format                      : DTS
Format/Info                 : Digital Theater Systems
Format profile              : MA / Core
Codec ID                    : A_DTS
Duration                    : 1 h 40 min
Bit rate mode               : Variable / Constant
Bit rate                    : 3 840 kb/s / 1 509 kb/s
Channel(s)                  : 6 channels
Channel positions           : Front: L C R, Side: L R, LFE
Sampling rate               : 48.0 kHz
Frame rate                  : 93.750 FPS (512 SPF)
Bit depth                   : 24 bits
Compression mode            : Lossless / Lossy
Stream size                 : 2.71 GiB (11%)
Title                       : Original
Language                    : French
Default                     : No
Forced                      : No

Menu
00:00:00.000                : en:00:00:00.000
00:09:59.333                : en:00:09:59.333
00:15:21.083                : en:00:15:21.083
00:23:54.042                : en:00:23:54.042
00:31:09.208                : en:00:31:09.208
00:41:34.000                : en:00:41:34.000
00:50:21.333                : en:00:50:21.333
01:01:29.083                : en:01:01:29.083
01:08:59.333                : en:01:08:59.333
01:17:04.375                : en:01:17:04.375
01:26:18.250                : en:01:26:18.250
01:36:58.000                : en:01:36:58.000



Скриншоты:
[+] Всего файлов в раздаче - 1:
Gauguin.2017.BDREMUX.1080p.ExKinoRay.mkv23.94 GB

Текущая раздача:
ДатаКомментарии    РазмерПиры
2018-03-10 U Дикарь / Gauguin - Voyage de Tahiti (2017) BDRemux 1080p от ExKinoRay | iTunes 23.94 GB ↑ 49 ↓ 37

Показать еще раздачи по запросу дикарь:
2018-04-14 U Дикарь / Gauguin - Voyage de Tahiti (2017) BDRip от ExKinoRay | iTunes 1.41 GB ↑ 59 ↓ 13
2018-03-10 U Дикарь / Gauguin - Voyage de Tahiti (2017) BDRip от MegaPeer | iTunes 744.96 MB ↑ 56 ↓ 18
2018-03-09 U Дикарь / Gauguin - Voyage de Tahiti (2017) BDRip 720p от ExKinoRay | iTunes 5.01 GB ↑ 228 ↓ 92
2018-03-09 U Дикарь / Gauguin - Voyage de Tahiti (2017) BDRip 1080p от ExKinoRay | iTunes 9.78 GB ↑ 178 ↓ 166
2018-03-09 U Дикарь / Gauguin - Voyage de Tahiti (2017) BDRip от MegaPeer | iTunes 1.42 GB ↑ 279 ↓ 145
2018-03-06 U Дикарь / Gauguin - Voyage de Tahiti (2017) DVDRip от NovaLan | D | Line 1.46 GB ↑ 86 ↓ 18
2018-03-03 U Дикарь / Гоген. В поисках рая / Gauguin - Voyage de Tahiti (2017) WEBRip 720p | D | Line 2.51 GB ↑ 296 ↓ 152

Отзывы
Зарегистрируйтесь чтобы добавить комментарий.
Обратная связь
Copyleft ©