↑↓Torrent.by
Поиск
Логин: Регистрация
Пароль: Восстановить пароль
Загрузка...

Убийство в Восточном экспрессе / Murder on the Orient Express (2017) BDRip-HEVC 1080p от ХиМиК | D | Лицензия

Скачать ubiystvo-v-vostochnom-ekspresse-murder-on-the-orient-express-2017-bdrip-hevc-1080p-ot-himik-d-licenziya.torrent
U Магнитная ссылка Размер: 5.61 GB Раздают: 64 Качают: 53 Добавлен: 2018-03-10 17:40:25
Убийство в Восточном экспрессе / Murder on the Orient Express (2017) BDRip-HEVC 1080p от ХиМиК | D | Лицензия

Название: Убийство в Восточном экспрессе
Оригинальное название: Murder on the Orient Express
Год выхода: 2017
Жанр: драма, криминал, детектив
Режиссер: Кеннет Брана
В ролях: Кеннет Брана, Пенелопа Крус, Уиллем Дефо, Джуди Денч, Джонни Депп, Джош Гэд, Дерек Джекоби, Лесли Одом мл., Мишель Пфайффер, Дэйзи Ридли

О фильме:
Путешествие на одном из самых роскошных поездов Европы неожиданно превращается в одну из самых стильных и захватывающих загадок в истории. Фильм рассказывает историю тринадцати пассажиров поезда, каждый из которых находится под подозрением. И только сыщик должен как можно быстрее разгадать головоломку, прежде чем преступник нанесет новый удар.

Страна: США, Великобритания, Мальта, Канада
Студия: 20th Century Fox Film Corporation, Genre Films, Kinberg Genre, Latina Pictures
Продолжительность: 01:53:55
Перевод: Дублированный (лицензия)

Файл
Кодек: HEVC x265 10 bit
Качество: BDRip-HEVC 1080p
Видео: 1920x804 (2.40:1), 6155 Кбит/сек, 0.166 бит/(Пиксели*Кадры), 23.976 (24000/1001) кадр/сек, HEVC (Main10@L.4.1@High) 10 бит
Звук:
Русская, AC3, 448 Кбит/сек, Front: L C R, Side: L R, LFE, 48,0 КГц (Дубляж лицензия)
Английская, AC3, 448 Кбит/сек, Front: L C R, Side: L R, LFE, 48,0 КГц (Оригинал)
Субтитры: русские (форсированные), английские
Разделение по главам: есть

Семпл

Релиз от: от XuMuK


[+] MediaInfo

Общее
Уникальный идентификатор                 : 196147386510594713357030525119008838603 (0x93909CCE125D366B29F2F9F8D75393CB)
Полное имя                               : H:HEVC 210 BITMurder on the Orient Express_2017_BDRip_1080p_[HEVC]_10bit.mkv
Формат                                   : Matroska
Версия формата                           : Version 4 / Version 2
Размер файла                             : 5,61 Гбайт
Продолжительность                        : 1 ч. 53 м.
Общий поток                              : 7053 Кбит/сек
Дата кодирования                         : UTC 2018-03-04 17:12:01
Программа кодирования                    : mkvmerge v21.0.0 ('Tardigrades Will Inherit The Earth') 64-bit
Библиотека кодирования                   : libebml v1.3.5 + libmatroska v1.4.8
Обложка                                  : Yes
Attachments                              : cover.png

Видео
Идентификатор                            : 1
Формат                                   : HEVC
Формат/Информация                        : High Efficiency Video Coding
Профиль формата                          : Main 10@L4.1@High
Идентификатор кодека                     : V_MPEGH/ISO/HEVC
Продолжительность                        : 1 ч. 53 м.
Битрейт                                  : 6155 Кбит/сек
Ширина                                   : 1920 пикселей
Высота                                   : 804 пикселя
Соотношение сторон                       : 2,40:1
Режим частоты кадров                     : Постоянный
Частота кадров                           : 23,976 (24000/1001) кадра/сек
Цветовое пространство                    : YUV
Субдискретизация насыщенности            : 4:2:0
Битовая глубина                          : 10 бит
Бит/(Пиксели*Кадры)                      : 0.166
Размер потока                            : 4,90 Гбайт (87%)
Библиотека кодирования                   : x265 2.6+32-b763c22920f6:[Windows][MSVC 1900][64 bit] 10bit
Настройки программы                      : cpuid=1173503 / frame-threads=4 / numa-pools=16 / wpp / no-pmode / no-pme / no-psnr / no-ssim / log-level=2 / input-csp=1 / input-res=1920x804 / interlace=0 / total-frames=163899 / level-idc=41 / high-tier=1 / uhd-bd=0 / ref=5 / no-allow-non-conformance / no-repeat-headers / annexb / no-aud / no-hrd / info / hash=0 / no-temporal-layers / open-gop / min-keyint=23 / keyint=240 / gop-lookahead=0 / bframes=8 / b-adapt=2 / no-b-pyramid / bframe-bias=0 / rc-lookahead=60 / lookahead-slices=4 / scenecut=40 / radl=0 / no-intra-refresh / ctu=64 / min-cu-size=8 / rect / amp / max-tu-size=32 / tu-inter-depth=3 / tu-intra-depth=3 / limit-tu=1 / rdoq-level=2 / dynamic-rd=0.00 / no-ssim-rd / signhide / no-tskip / nr-intra=0 / nr-inter=0 / no-constrained-intra / no-strong-intra-smoothing / max-merge=3 / limit-refs=2 / limit-modes / me=3 / subme=7 / merange=57 / temporal-mvp / weightp / weightb / no-analyze-src-pics / deblock=-3:-3 / no-sao / no-sao-non-deblock / rd=6 / no-early-skip / rskip / no-fast-intra / no-tskip-fast / no-cu-lossless / b-intra / no-splitrd-skip / rdpenalty=0 / psy-rd=2.00 / psy-rdoq=1.00 / no-rd-refine / no-lossless / cbqpoffs=-2 / crqpoffs=-2 / rc=crf / crf=18.0 / qcomp=0.60 / qpstep=4 / stats-write=0 / stats-read=0 / vbv-maxrate=50000 / vbv-bufsize=50000 / vbv-init=0.9 / crf-max=0.0 / crf-min=0.0 / ipratio=1.40 / pbratio=1.30 / aq-mode=1 / aq-strength=1.00 / cutree / zone-count=1 / zones: / start-frame=153562 / end-frame=163899 / qp=35 / no-strict-cbr / qg-size=32 / no-rc-grain / qpmax=69 / qpmin=0 / no-const-vbv / sar=1 / overscan=0 / videoformat=5 / range=0 / colorprim=2 / transfer=2 / colormatrix=2 / chromaloc=0 / display-window=0 / max-cll=0,0 / min-luma=0 / max-luma=1023 / log2-max-poc-lsb=8 / vui-timing-info / vui-hrd-info / slices=1 / no-opt-qp-pps / no-opt-ref-list-length-pps / no-multi-pass-opt-rps / scenecut-bias=0.05 / no-opt-cu-delta-qp / no-aq-motion / no-hdr / no-hdr-opt / no-dhdr10-opt / analysis-reuse-level=5 / scale-factor=0 / refine-intra=0 / refine-inter=0 / refine-mv=0 / no-limit-sao / ctu-info=0 / no-lowpass-dct / refine-mv-type=0 / copy-pic=1
Default                                  : Да
Forced                                   : Нет

Аудио #1
Идентификатор                            : 2
Формат                                   : AC-3
Формат/Информация                        : Audio Coding 3
Идентификатор кодека                     : A_AC3
Продолжительность                        : 1 ч. 53 м.
Вид битрейта                             : Постоянный
Битрейт                                  : 448 Кбит/сек
Каналы                                   : 6 каналов
Расположение каналов                     : Front: L C R, Side: L R, LFE
Частота                                  : 48,0 КГц
Частота кадров                           : 31,250 кадров/сек (1536 SPF)
Битовая глубина                          : 16 бит
Метод сжатия                             : С потерями
Размер потока                            : 365 Мбайт (6%)
Заголовок                                : Дубляж
Язык                                     : Russian
ServiceKind                              : Complete Main
Default                                  : Да
Forced                                   : Нет

Аудио #2
Идентификатор                            : 3
Формат                                   : AC-3
Формат/Информация                        : Audio Coding 3
Идентификатор кодека                     : A_AC3
Продолжительность                        : 1 ч. 53 м.
Вид битрейта                             : Постоянный
Битрейт                                  : 448 Кбит/сек
Каналы                                   : 6 каналов
Расположение каналов                     : Front: L C R, Side: L R, LFE
Частота                                  : 48,0 КГц
Частота кадров                           : 31,250 кадров/сек (1536 SPF)
Битовая глубина                          : 16 бит
Метод сжатия                             : С потерями
Размер потока                            : 365 Мбайт (6%)
Заголовок                                : Оригинал
Язык                                     : English
ServiceKind                              : Complete Main
Default                                  : Нет
Forced                                   : Нет

Текст #1
Идентификатор                            : 4
Формат                                   : UTF-8
Идентификатор кодека                     : S_TEXT/UTF8
Идентификатор кодека/Информация          : UTF-8 Plain Text
Продолжительность                        : 1 ч. 36 м.
Битрейт                                  : 1 бит/сек
ElementCount                             : 32
Размер потока                            : 1,16 Кбайт (0%)
Заголовок                                : RUS Forced
Язык                                     : Russian
Default                                  : Да
Forced                                   : Нет

Текст #2
Идентификатор                            : 5
Формат                                   : UTF-8
Идентификатор кодека                     : S_TEXT/UTF8
Идентификатор кодека/Информация          : UTF-8 Plain Text
Продолжительность                        : 1 ч. 44 м.
Битрейт                                  : 72 бит/сек
ElementCount                             : 1844
Размер потока                            : 55,5 Кбайт (0%)
Заголовок                                : Full
Язык                                     : English
Default                                  : Нет
Forced                                   : Нет

Меню
00:00:00.000                             : en:00:00:00.000
00:03:06.144                             : en:00:03:06.144
00:06:42.193                             : en:00:06:42.193
00:11:44.746                             : en:00:11:44.746
00:18:26.188                             : en:00:18:26.188
00:24:53.659                             : en:00:24:53.659
00:33:14.159                             : en:00:33:14.159
00:37:47.515                             : en:00:37:47.515
00:43:16.511                             : en:00:43:16.511
00:46:24.865                             : en:00:46:24.865
00:51:23.580                             : en:00:51:23.580
00:55:52.015                             : en:00:55:52.015
01:00:03.183                             : en:01:00:03.183
01:05:39.227                             : en:01:05:39.227
01:10:40.153                             : en:01:10:40.153
01:14:17.578                             : en:01:14:17.578
01:18:05.055                             : en:01:18:05.055
01:21:12.284                             : en:01:21:12.284
01:24:39.366                             : en:01:24:39.366
01:28:37.854                             : en:01:28:37.854
01:32:28.376                             : en:01:32:28.376
01:37:04.652                             : en:01:37:04.652
01:40:30.024                             : en:01:40:30.024
01:46:49.903                             : en:01:46:49.903



Скриншоты:
[+] Всего файлов в раздаче - 1:
Murder on the Orient Express_2017_BDRip_1080p_[HEVC]_10bit.mkv5.61 GB

Текущая раздача:
ДатаКомментарии    РазмерПиры
2018-03-10 U Убийство в Восточном экспрессе / Murder on the Orient Express (2017) BDRip-HEVC 1080p от ХиМиК | D | Лицензия 5.61 GB ↑ 64 ↓ 53

Показать еще раздачи по запросу убийство:
2018-09-15 U Чисто английское убийство: кто на самом деле отравил Скрипаля? (2018) SATRip 647.82 MB ↑ 65 ↓ 9
2018-08-31 U Убийство в Альпийском предгорье / Crime dans les Alpilles (2017) HDTVRip | GreenРай Studio 1.37 GB ↑ 84 ↓ 15
2018-07-31 U Третье убийство / Sandome no satsujin (2017) HDRip от Scarabey | iTunes 1.39 GB ↑ 19 ↓ 9
2018-07-29 U Третье убийство / Sandome no satsujin (2017) BDRip от MegaPeer | iTunes 2.13 GB ↑ 36 ↓ 10
2018-07-28 U Третье убийство / Sandome no satsujin (2017) BDRip от MegaPeer | iTunes 1.46 GB ↑ 96 ↓ 9
2018-07-11 U Третье убийство / Sandome no satsujin (2017) WEB-DLRip-AVC от KinoHitHD | iTunes 1.98 GB ↑ 327 ↓ 18
2018-07-11 U Третье убийство / Sandome no satsujin (2017) HDRip-AVC от OlLanDGroup | iTunes 1.08 GB ↑ 18 ↓ 13

Отзывы
Зарегистрируйтесь чтобы добавить комментарий.
Обратная связь
Copyleft ©