↑↓Torrent.by
Поиск
Логин: Регистрация
Пароль: Восстановить пароль
Загрузка...

Миссия невыполнима: Племя изгоев / Mission: Impossible - Rogue Nation (2015) BDRip-HEVC 1080p от ХиМиК | D, A

Скачать missiya-nevypolnima-plemya-izgoev-mission-impossible-rogue-nation-2015-bdrip-hevc-1080p-ot-himik-d-a.torrent
U Магнитная ссылка Размер: 7.86 GB Раздают: 81 Качают: 39 Добавлен: 2018-03-10 17:40:35
Миссия невыполнима: Племя изгоев / Mission: Impossible - Rogue Nation (2015) BDRip-HEVC 1080p от ХиМиК | D, A

Название: Миссия невыполнима: Племя изгоев
Оригинальное название: Mission: Impossible - Rogue Nation
Год выхода: 2015
Жанр: боевик, триллер, приключения
Режиссер: Кристофер МакКуорри
В ролях: Том Круз, Ребекка Фергюсон, Саймон Пегг, Джереми Реннер, Винг Реймз, Шон Харрис, Алек Болдуин, Саймон МакБерни, Йенс Хультен, Том Холландер, Чжан Цзинчу, Матео Руфино, Фернандо Абадие, Алек Утгофф, Гермиона Корфилд, Найджел Барбер

О фильме:
Когда ОМН распускают, и Итан Хант остается не у дел, его команда неожиданно сталкивается с разветвленной международной сетью высокопрофессиональных спецагентов - Синдикатом. Это «племя изгоев» одержимо идеей установления нового мирового порядка и планирует серию разрушительных терактов. Итан и компания объединяются с дискредитированным британским агентом Ильзой Фауст и приступают к своей самой невыполнимой миссии…

Страна: США, Гонконг, Китай
Студия: Paramount Pictures, Alibaba Pictures Group, Bad Robot, China Movie Channel, Odin, Skydance Productions, TC Productions
Продолжительность: 02:11:34
Перевод: Профессиональный дублированный, авторский одноголосый

Файл
Кодек: HEVC x265 10 bit
Качество: BDRip-HEVC 1080p
Видео: 1920x804 (2.40:1), 6827 Кбит/сек, 0.184 бит/(Пиксели*Кадры), 23.976 (24000/1001) кадр/сек, HEVC (Main10@L.4.1@High) 10 бит
Звук:
Русская, AC3, 640 Кбит/сек, Front: L C R, Side: L R, LFE, 48,0 КГц (Дубляж)
Русская, AC3, 448 Кбит/сек, Front: L C R, Side: L R, LFE, 48,0 КГц (AVO Живов)
Английская, AC3, 640 Кбит/сек, Front: L C R, Side: L R, LFE, 48,0 КГц (Оригинал)
Субтитры: русские (форсированные, полные), английские (форсированные, полные)

Семпл

Релиз от: от XuMuK


[+] MediaInfo

Общее
Уникальный идентификатор                 : 260983043374868150862112855153508575284 (0xC457817D8128D3FEE11438B7B06B6834)
Полное имя                               : H:HEVC 210 BITMission ImpossibleMission_Impossible_Rogue Nation_2015_BDRip_1080p_[HEVC]_10bit.mkv
Формат                                   : Matroska
Версия формата                           : Version 4 / Version 2
Размер файла                             : 7,86 Гбайт
Продолжительность                        : 2 ч. 11 м.
Общий поток                              : 8557 Кбит/сек
Дата кодирования                         : UTC 2018-03-10 07:46:37
Программа кодирования                    : mkvmerge v21.0.0 ('Tardigrades Will Inherit The Earth') 64-bit
Библиотека кодирования                   : libebml v1.3.5 + libmatroska v1.4.8
Обложка                                  : Yes
Attachments                              : cover.jpg

Видео
Идентификатор                            : 1
Формат                                   : HEVC
Формат/Информация                        : High Efficiency Video Coding
Профиль формата                          : Main 10@L4.1@High
Идентификатор кодека                     : V_MPEGH/ISO/HEVC
Продолжительность                        : 2 ч. 11 м.
Битрейт                                  : 6827 Кбит/сек
Ширина                                   : 1920 пикселей
Высота                                   : 804 пикселя
Соотношение сторон                       : 2,40:1
Режим частоты кадров                     : Постоянный
Частота кадров                           : 23,976 (24000/1001) кадра/сек
Цветовое пространство                    : YUV
Субдискретизация насыщенности            : 4:2:0
Битовая глубина                          : 10 бит
Бит/(Пиксели*Кадры)                      : 0.184
Размер потока                            : 6,27 Гбайт (80%)
Библиотека кодирования                   : x265 2.7+1-2aa737a99f51:[Windows][GCC 8.0.1][64 bit] 10bit
Настройки программы                      : cpuid=1173503 / frame-threads=4 / numa-pools=16 / wpp / no-pmode / no-pme / no-psnr / no-ssim / log-level=2 / input-csp=1 / input-res=1920x804 / interlace=0 / total-frames=189261 / level-idc=41 / high-tier=1 / uhd-bd=0 / ref=5 / no-allow-non-conformance / no-repeat-headers / annexb / no-aud / no-hrd / info / hash=0 / no-temporal-layers / open-gop / min-keyint=23 / keyint=240 / gop-lookahead=0 / bframes=8 / b-adapt=2 / b-pyramid / bframe-bias=0 / rc-lookahead=60 / lookahead-slices=4 / scenecut=40 / radl=0 / no-intra-refresh / ctu=64 / min-cu-size=8 / rect / amp / max-tu-size=32 / tu-inter-depth=4 / tu-intra-depth=4 / limit-tu=1 / rdoq-level=2 / dynamic-rd=0.00 / no-ssim-rd / signhide / no-tskip / nr-intra=0 / nr-inter=0 / no-constrained-intra / no-strong-intra-smoothing / max-merge=3 / limit-refs=2 / limit-modes / me=3 / subme=7 / merange=57 / temporal-mvp / weightp / weightb / no-analyze-src-pics / deblock=-3:-3 / no-sao / no-sao-non-deblock / rd=6 / no-early-skip / rskip / no-fast-intra / no-tskip-fast / no-cu-lossless / b-intra / no-splitrd-skip / rdpenalty=0 / psy-rd=2.00 / psy-rdoq=1.00 / no-rd-refine / no-lossless / cbqpoffs=-2 / crqpoffs=-2 / rc=crf / crf=19.0 / qcomp=0.75 / qpstep=4 / stats-write=0 / stats-read=0 / vbv-maxrate=50000 / vbv-bufsize=50000 / vbv-init=0.9 / crf-max=0.0 / crf-min=0.0 / ipratio=1.40 / pbratio=1.30 / aq-mode=1 / aq-strength=1.00 / cutree / zone-count=1 / zones: / start-frame=180464 / end-frame=189261 / qp=35 / no-strict-cbr / qg-size=32 / no-rc-grain / qpmax=69 / qpmin=0 / no-const-vbv / sar=1 / overscan=0 / videoformat=5 / range=0 / colorprim=2 / transfer=2 / colormatrix=1 / chromaloc=0 / display-window=0 / max-cll=0,0 / min-luma=0 / max-luma=1023 / log2-max-poc-lsb=8 / vui-timing-info / vui-hrd-info / slices=1 / no-opt-qp-pps / no-opt-ref-list-length-pps / no-multi-pass-opt-rps / scenecut-bias=0.05 / no-opt-cu-delta-qp / no-aq-motion / no-hdr / no-hdr-opt / no-dhdr10-opt / analysis-reuse-level=5 / scale-factor=0 / refine-intra=0 / refine-inter=0 / refine-mv=0 / no-limit-sao / ctu-info=0 / no-lowpass-dct / refine-mv-type=0 / copy-pic=1
Default                                  : Да
Forced                                   : Нет
Цветовой диапазон                        : Limited
Коэффициенты матрицы                     : BT.709

Аудио #1
Идентификатор                            : 2
Формат                                   : AC-3
Формат/Информация                        : Audio Coding 3
Идентификатор кодека                     : A_AC3
Продолжительность                        : 2 ч. 11 м.
Вид битрейта                             : Постоянный
Битрейт                                  : 640 Кбит/сек
Каналы                                   : 6 каналов
Расположение каналов                     : Front: L C R, Side: L R, LFE
Частота                                  : 48,0 КГц
Частота кадров                           : 31,250 кадров/сек (1536 SPF)
Битовая глубина                          : 16 бит
Метод сжатия                             : С потерями
Задержка видео                           : 26 мс.
Размер потока                            : 602 Мбайт (7%)
Заголовок                                : Дубляж
Язык                                     : Russian
ServiceKind                              : Complete Main
Default                                  : Да
Forced                                   : Нет

Аудио #2
Идентификатор                            : 3
Формат                                   : AC-3
Формат/Информация                        : Audio Coding 3
Идентификатор кодека                     : A_AC3
Продолжительность                        : 2 ч. 11 м.
Вид битрейта                             : Постоянный
Битрейт                                  : 448 Кбит/сек
Каналы                                   : 6 каналов
Расположение каналов                     : Front: L C R, Side: L R, LFE
Частота                                  : 48,0 КГц
Частота кадров                           : 31,250 кадров/сек (1536 SPF)
Битовая глубина                          : 16 бит
Метод сжатия                             : С потерями
Размер потока                            : 422 Мбайт (5%)
Заголовок                                : AVO Живов
Язык                                     : Russian
ServiceKind                              : Complete Main
Default                                  : Нет
Forced                                   : Нет

Аудио #3
Идентификатор                            : 4
Формат                                   : AC-3
Формат/Информация                        : Audio Coding 3
Идентификатор кодека                     : A_AC3
Продолжительность                        : 2 ч. 11 м.
Вид битрейта                             : Постоянный
Битрейт                                  : 640 Кбит/сек
Каналы                                   : 6 каналов
Расположение каналов                     : Front: L C R, Side: L R, LFE
Частота                                  : 48,0 КГц
Частота кадров                           : 31,250 кадров/сек (1536 SPF)
Битовая глубина                          : 16 бит
Метод сжатия                             : С потерями
Размер потока                            : 602 Мбайт (7%)
Заголовок                                : Оригинал
Язык                                     : English
ServiceKind                              : Complete Main
Default                                  : Нет
Forced                                   : Нет

Текст #1
Идентификатор                            : 5
Формат                                   : UTF-8
Идентификатор кодека                     : S_TEXT/UTF8
Идентификатор кодека/Информация          : UTF-8 Plain Text
Продолжительность                        : 1 ч. 57 м.
Битрейт                                  : 2 бит/сек
ElementCount                             : 50
Размер потока                            : 2,08 Кбайт (0%)
Заголовок                                : RUS Forced
Язык                                     : Russian
Default                                  : Да
Forced                                   : Нет

Текст #2
Идентификатор                            : 6
Формат                                   : UTF-8
Идентификатор кодека                     : S_TEXT/UTF8
Идентификатор кодека/Информация          : UTF-8 Plain Text
Продолжительность                        : 2 ч. 3 м.
Битрейт                                  : 81 бит/сек
ElementCount                             : 1219
Размер потока                            : 73,4 Кбайт (0%)
Заголовок                                : RUS Full
Язык                                     : Russian
Default                                  : Нет
Forced                                   : Нет

Текст #3
Идентификатор                            : 7
Формат                                   : UTF-8
Идентификатор кодека                     : S_TEXT/UTF8
Идентификатор кодека/Информация          : UTF-8 Plain Text
Продолжительность                        : 1 ч. 53 м.
Битрейт                                  : 0 бит/сек
ElementCount                             : 22
Размер потока                            : 650 байт (0%)
Заголовок                                : ENG Forced
Язык                                     : English
Default                                  : Нет
Forced                                   : Нет

Текст #4
Идентификатор                            : 8
Формат                                   : UTF-8
Идентификатор кодека                     : S_TEXT/UTF8
Идентификатор кодека/Информация          : UTF-8 Plain Text
Продолжительность                        : 2 ч. 3 м.
Битрейт                                  : 49 бит/сек
ElementCount                             : 1233
Размер потока                            : 44,7 Кбайт (0%)
Заголовок                                : ENG Full
Язык                                     : English
Default                                  : Нет
Forced                                   : Нет



Скриншоты:
[+] Всего файлов в раздаче - 1:
Mission_Impossible_Rogue Nation_2015_BDRip_1080p_[HEVC]_10bit.mkv7.86 GB

Текущая раздача:
ДатаКомментарии    РазмерПиры
2018-03-10 U Миссия невыполнима: Племя изгоев / Mission: Impossible - Rogue Nation (2015) BDRip-HEVC 1080p от ХиМиК | D, A 7.86 GB ↑ 81 ↓ 39

Показать еще раздачи по запросу миссия:
2018-05-16 U Миссия: невыполнима 2 / Mission: Impossible II (2000) BDRip-HEVC 1080p от ХиМиК | P, P2, A 9.37 GB ↑ 29 ↓ 14
2018-02-10 U Серия книг - Миссия «Космос». Подарочные издания [4 книги] (2014-2018) PDF 337.93 MB ↑ 287 ↓ 23
2018-01-21 U Миссия на Марс / Mission to Mars (2000) BDRip-AVC от DrVampir | P, P2, A 2.18 GB ↑ 17 ↓ 40
2018-01-18 U Миссия «Серенити» / Serenity (2005) UHD BDRemux 2160p от ExKinoRay | 4K | HDR | D, P2, A 54.09 GB ↑ 38 ↓ 22
2018-01-16 U Прокопенко Игорь - Последняя миссия Гитлера (2018) FB2 4.17 MB ↑ 498 ↓ 17
2017-09-23 U Миссия Сатурн / Mission Saturn (2017) HDTVRip 720p | P1 1.70 GB ↑ 391 ↓ 49
2017-09-23 U Миссия Сатурн / Mission Saturn (2017) HDTVRip от Kaztorrents | P1 2К705.74 MB ↑ 304 ↓ 35

Отзывы
Зарегистрируйтесь чтобы добавить комментарий.
Обратная связь
Copyleft ©