↑↓Torrent.by
Поиск
Логин: Регистрация
Пароль: Восстановить пароль
Загрузка...

Трон эльфов / Throne of Elves (2016) BDRip 720p | iTunes

Скачать tron-elfov-throne-of-elves-2016-bdrip-720p-itunes.torrent
U Магнитная ссылка Размер: 2.75 GB Раздают: 111 Качают: 70 Добавлен: 2018-03-11 07:47:25
Трон эльфов / Throne of Elves (2016) BDRip 720p | iTunes

Название: Трон эльфов
Оригинальное название: Throne of Elves
Год выхода: 2016
Жанр: Мультфильм, фэнтези, приключения, семейный
Режиссер: И Гэ, Сун Юэфэн
В ролях: Эшли Боеттчер, Гилберт Боус, Гэвин Хаммон, Джули Натансон, Джон Олсон, Райан Поттер, Енн Рейтел, Кевин Майкл Ричардсон, Аника Нони Роуз, Стефани Ше

О фильме:
Юный воин Ламберт получает приглашение на свадьбу принцессы Страны Эльфов. Обрадованный возможностью вновь увидеться с молодой эльфийкой Лийей, он собирается в путь на воздушном корабле. В краю эльфов между тем не все спокойно: владычица Темных Эльфов Елена планирует нарушить свадебную церемонию, чтобы, застав врасплох придворных, захватить древний кристалл Черного Дракона.

Страна: Китай, США
Студия: Mili Pictures
Продолжительность: 01:38:52
Перевод: Дублированный | iTunes

Файл
Кодек: H264
Качество: BDRip 720p
Видео: 3 600 kb/s, 1280x720, 23.976fps
Звук: русский, AC3, 48000Hz, 6ch, 384kbps
Субтитры: нет


[+] MediaInfo
General
Unique ID                      : 209057536003593145688088059119281385969 (0x9D4704518566D0C49675C01B0A6031F1)
Complete name                  : d:DownloadsТрон эльфов.2016.BDRip.720p.iTunes.mkv
Format                         : Matroska
Format version                 : Version 4 / Version 2
File size                      : 2.75 GiB
Duration                       : 1 h 38 min
Overall bit rate               : 3 985 kb/s
Encoded date                   : UTC 2018-03-10 17:38:25
Writing application            : mkvmerge v8.3.0 ('Over the Horizon') 64bit
Writing library                : libebml v1.3.1 + libmatroska v1.4.2

Video
ID                             : 1
Format                         : AVC
Format/Info                    : Advanced Video Codec
Format profile                 : High@L3.1
Format settings                : CABAC / 4 Ref Frames
Format settings, CABAC         : Yes
Format settings, ReFrames      : 4 frames
Codec ID                       : V_MPEG4/ISO/AVC
Duration                       : 1 h 38 min
Bit rate                       : 3 600 kb/s
Width                          : 1 280 pixels
Height                         : 720 pixels
Display aspect ratio           : 16:9
Frame rate mode                : Constant
Frame rate                     : 23.976 (24000/1001) FPS
Color space                    : YUV
Chroma subsampling             : 4:2:0
Bit depth                      : 8 bits
Scan type                      : Progressive
Bits/(Pixel*Frame)             : 0.163
Stream size                    : 2.49 GiB (90%)
Writing library                : x264 core 148 r2744 b97ae06
Encoding settings              : cabac=1 / ref=4 / deblock=1:0:0 / analyse=0x3:0x113 / me=umh / subme=9 / psy=1 / psy_rd=1.00:0.00 / mixed_ref=1 / me_range=32 / chroma_me=1 / trellis=1 / 8x8dct=1 / cqm=0 / deadzone=21,11 / fast_pskip=1 / chroma_qp_offset=-2 / threads=3 / lookahead_threads=1 / sliced_threads=0 / nr=0 / decimate=1 / interlaced=0 / bluray_compat=0 / constrained_intra=0 / bframes=8 / b_pyramid=2 / b_adapt=2 / b_bias=0 / direct=3 / weightb=1 / open_gop=0 / weightp=2 / keyint=288 / keyint_min=23 / scenecut=40 / intra_refresh=0 / rc_lookahead=40 / rc=2pass / mbtree=1 / bitrate=3600 / ratetol=1.0 / qcomp=0.60 / qpmin=0 / qpmax=69 / qpstep=4 / cplxblur=20.0 / qblur=0.5 / ip_ratio=1.40 / aq=1:1.00
Language                       : Chinese
Default                        : Yes
Forced                         : No

Audio
ID                             : 2
Format                         : AC-3
Format/Info                    : Audio Coding 3
Codec ID                       : A_AC3
Duration                       : 1 h 38 min
Bit rate mode                  : Constant
Bit rate                       : 384 kb/s
Channel(s)                     : 6 channels
Channel positions              : Front: L C R, Side: L R, LFE
Sampling rate                  : 48.0 kHz
Frame rate                     : 31.250 FPS (1536 SPF)
Bit depth                      : 16 bits
Compression mode               : Lossy
Stream size                    : 272 MiB (10%)
Title                          : iTunes
Language                       : Russian
Service kind                   : Complete Main
Default                        : Yes
Forced                         : No



Скриншоты:
[+] Всего файлов в раздаче - 1:
Трон эльфов.2016.BDRip.720p.iTunes.mkv2.75 GB

Текущая раздача:
ДатаКомментарии    РазмерПиры
2018-03-11 U Трон эльфов / Throne of Elves (2016) BDRip 720p | iTunes 2.75 GB ↑ 111 ↓ 70

Показать еще раздачи по запросу трон:
2018-05-27 U Трон: Наследие / TRON: Legacy (2010) BDRip 1080p | IMAX 7.76 GB ↑ 62 ↓ 28
2018-03-14 U Трон эльфов / Throne of Elves (2016) BDRip от ExKinoRay | iTunes 1.41 GB ↑ 70 ↓ 8
2018-03-11 U Трон эльфов / Throne of Elves (2016) BDRip-HEVC 1080p | iTunes 7.20 GB ↑ 150 ↓ 55
2018-03-09 U Трон эльфов / Throne of Elves (2016) BDRip от MegaPeer | iTunes 1.42 GB ↑ 225 ↓ 95
2017-09-27 U Трон эльфов / Throne of Elves (2016) HDRip | L 751.71 MB ↑ 186 ↓ 56
2017-09-26 U Трон эльфов / Throne of Elves (2017) BDRip 720p | L 3.15 GB ↑ 372 ↓ 82
2017-08-03 U Гнездо дракона 2: Трон эльфов / Dragon Nest: Throne of Elves (2016) WEB-DLRip 1080p | L 2.77 GB ↑ 150 ↓ 132

Отзывы
Зарегистрируйтесь чтобы добавить комментарий.
Обратная связь
Copyleft ©