↑↓Torrent.by
Поиск
Логин: Регистрация
Пароль: Восстановить пароль
Загрузка...

Тор: Рагнарёк / Thor: Ragnarok (2017) BDRip-HEVC 1080p от ХиМиК | D | Лицензия

Скачать tor-ragnarek-thor-ragnarok-2017-bdrip-hevc-1080p-ot-himik-d-licenziya.torrent
U Магнитная ссылка Размер: 5.76 GB Раздают: 27 Качают: 14 Добавлен: 2018-03-11 09:09:18
Тор: Рагнарёк / Thor: Ragnarok (2017) BDRip-HEVC 1080p от ХиМиК | D | Лицензия

Название: Тор: Рагнарёк
Оригинальное название: Thor: Ragnarok
Год выхода: 2017
Жанр: фантастика, боевик, комедия, приключения
Режиссер: Тайка Вайтити
В ролях: Крис Хемсворт, Том Хиддлстон, Кейт Бланшетт, Идрис Эльба, Джефф Голдблюм, Тесса Томпсон, Карл Урбан, Марк Руффало, Энтони Хопкинс, Бенедикт Камбербэтч

О фильме:
Вернувшись в Асгард в поисках таинственного врага, ведущего охоту на Камни Бесконечности, Тор обнаруживает, что действия его брата Локи, захватившего трон Асгарда, привели к приближению наиболее страшного события - Рагнарёка. По легенде это ознаменует последнюю битву Асгарда, последствием которой станет его полное уничтожение. В попытке предотвратить это событие Тору предстоит прибегнуть к помощи своего товарища из Мстителей - Халка. Вместе им предстоит столкнуться лицом к лицу со злейшим врагом всех девяти миров - огненным демоном Суртуром, целью которого является исполнение пророчества о Рагнарёке и уничтожение девяти миров.

Страна: США
Студия: Marvel Entertainment, Marvel Studios, Walt Disney Pictures
Продолжительность: 02:10:31
Перевод: Дублированный (лицензия)

Файл
Кодек: HEVC x265 10 bit
Качество: BDRip-HEVC 1080p
Видео: 1920x804 (2.40:1), 5230 Кбит/сек, 0.141 бит/(Пиксели*Кадры), 23.976 (24000/1001) кадр/сек, HEVC (Main10@L.4.1@High) 10 бит
Звук:
Русская, AC3, 448 Кбит/сек, Front: L C R, Side: L R, LFE, 48,0 КГц (Дубляж лицензия)
Украинская, AC3, 192 Кбит/сек, Front: C, 44,1 КГц (Дубляж)
Английская, AC3, 448 Кбит/сек, Front: L C R, Side: L R, LFE, 48,0 КГц (Оригинал)
Субтитры: русские (форсированные, полные), английские

Семпл

Релиз от: от XuMuK


[+] MediaInfo

Общее
Уникальный идентификатор                 : 21478043779126430483910215721942027469 (0x10288550ED7A8BD4177B69511FC08CCD)
Полное имя                               : H:HEVC 210 BITTORTor Ragnarjek_2017_BDRip_1080p_[HEVC]_10bit.mkv
Формат                                   : Matroska
Версия формата                           : Version 4 / Version 2
Размер файла                             : 5,76 Гбайт
Продолжительность                        : 2 ч. 10 м.
Общий поток                              : 6320 Кбит/сек
Дата кодирования                         : UTC 2018-03-10 10:34:33
Программа кодирования                    : mkvmerge v21.0.0 ('Tardigrades Will Inherit The Earth') 64-bit
Библиотека кодирования                   : libebml v1.3.5 + libmatroska v1.4.8
Обложка                                  : Yes
Attachments                              : cover.jpg

Видео
Идентификатор                            : 1
Формат                                   : HEVC
Формат/Информация                        : High Efficiency Video Coding
Профиль формата                          : Main 10@L4.1@High
Идентификатор кодека                     : V_MPEGH/ISO/HEVC
Продолжительность                        : 2 ч. 10 м.
Битрейт                                  : 5230 Кбит/сек
Ширина                                   : 1920 пикселей
Высота                                   : 804 пикселя
Соотношение сторон                       : 2,40:1
Режим частоты кадров                     : Постоянный
Частота кадров                           : 23,976 (24000/1001) кадра/сек
Цветовое пространство                    : YUV
Субдискретизация насыщенности            : 4:2:0
Битовая глубина                          : 10 бит
Бит/(Пиксели*Кадры)                      : 0.141
Размер потока                            : 4,77 Гбайт (83%)
Библиотека кодирования                   : x265 2.7+1-2aa737a99f51:[Windows][GCC 8.0.1][64 bit] 10bit
Настройки программы                      : cpuid=1173503 / frame-threads=4 / numa-pools=16 / wpp / no-pmode / no-pme / no-psnr / no-ssim / log-level=2 / input-csp=1 / input-res=1920x804 / interlace=0 / total-frames=0 / level-idc=41 / high-tier=1 / uhd-bd=0 / ref=5 / no-allow-non-conformance / no-repeat-headers / annexb / no-aud / no-hrd / info / hash=0 / no-temporal-layers / open-gop / min-keyint=23 / keyint=240 / gop-lookahead=0 / bframes=8 / b-adapt=2 / no-b-pyramid / bframe-bias=0 / rc-lookahead=60 / lookahead-slices=4 / scenecut=40 / radl=0 / no-intra-refresh / ctu=64 / min-cu-size=8 / rect / amp / max-tu-size=32 / tu-inter-depth=4 / tu-intra-depth=4 / limit-tu=1 / rdoq-level=2 / dynamic-rd=0.00 / no-ssim-rd / signhide / tskip / nr-intra=0 / nr-inter=0 / no-constrained-intra / no-strong-intra-smoothing / max-merge=3 / limit-refs=0 / limit-modes / me=3 / subme=7 / merange=57 / temporal-mvp / weightp / weightb / no-analyze-src-pics / deblock=-3:-3 / no-sao / no-sao-non-deblock / rd=6 / no-early-skip / no-rskip / no-fast-intra / no-tskip-fast / no-cu-lossless / b-intra / no-splitrd-skip / rdpenalty=0 / psy-rd=2.00 / psy-rdoq=1.00 / no-rd-refine / no-lossless / cbqpoffs=-2 / crqpoffs=-2 / rc=crf / crf=18.0 / qcomp=0.60 / qpstep=4 / stats-write=0 / stats-read=0 / vbv-maxrate=50000 / vbv-bufsize=50000 / vbv-init=0.9 / crf-max=0.0 / crf-min=0.0 / ipratio=1.40 / pbratio=1.30 / aq-mode=1 / aq-strength=1.00 / cutree / zone-count=2 / zones: / start-frame=177645 / end-frame=186466 / qp=35 / zones: / start-frame=187378 / end-frame=187749 / qp=35 / no-strict-cbr / qg-size=32 / no-rc-grain / qpmax=69 / qpmin=0 / no-const-vbv / sar=0 / overscan=0 / videoformat=5 / range=0 / colorprim=2 / transfer=2 / colormatrix=1 / chromaloc=0 / display-window=0 / max-cll=0,0 / min-luma=0 / max-luma=1023 / log2-max-poc-lsb=8 / vui-timing-info / vui-hrd-info / slices=1 / no-opt-qp-pps / no-opt-ref-list-length-pps / no-multi-pass-opt-rps / scenecut-bias=0.05 / no-opt-cu-delta-qp / no-aq-motion / no-hdr / no-hdr-opt / no-dhdr10-opt / analysis-reuse-level=5 / scale-factor=0 / refine-intra=0 / refine-inter=0 / refine-mv=0 / no-limit-sao / ctu-info=0 / no-lowpass-dct / refine-mv-type=0 / copy-pic=1
Default                                  : Да
Forced                                   : Да
Цветовой диапазон                        : Limited
Коэффициенты матрицы                     : BT.709

Аудио #1
Идентификатор                            : 2
Формат                                   : AC-3
Формат/Информация                        : Audio Coding 3
Идентификатор кодека                     : A_AC3
Продолжительность                        : 2 ч. 10 м.
Вид битрейта                             : Постоянный
Битрейт                                  : 448 Кбит/сек
Каналы                                   : 6 каналов
Расположение каналов                     : Front: L C R, Side: L R, LFE
Частота                                  : 48,0 КГц
Частота кадров                           : 31,250 кадров/сек (1536 SPF)
Битовая глубина                          : 16 бит
Метод сжатия                             : С потерями
Размер потока                            : 418 Мбайт (7%)
Заголовок                                : Дубляж Лицензия
Язык                                     : Russian
ServiceKind                              : Complete Main
Default                                  : Да
Forced                                   : Нет

Аудио #2
Идентификатор                            : 3
Формат                                   : AC-3
Формат/Информация                        : Audio Coding 3
Идентификатор кодека                     : A_AC3
Продолжительность                        : 2 ч. 10 м.
Вид битрейта                             : Постоянный
Битрейт                                  : 192 Кбит/сек
Каналы                                   : 1 канал
Расположение каналов                     : Front: C
Частота                                  : 44,1 КГц
Частота кадров                           : 28,711 кадров/сек (1536 SPF)
Битовая глубина                          : 16 бит
Метод сжатия                             : С потерями
Размер потока                            : 179 Мбайт (3%)
Заголовок                                : Дубляж UKR
Язык                                     : Ukrainian
ServiceKind                              : Complete Main
Default                                  : Нет
Forced                                   : Нет

Аудио #3
Идентификатор                            : 4
Формат                                   : AC-3
Формат/Информация                        : Audio Coding 3
Идентификатор кодека                     : A_AC3
Продолжительность                        : 2 ч. 10 м.
Вид битрейта                             : Постоянный
Битрейт                                  : 448 Кбит/сек
Каналы                                   : 6 каналов
Расположение каналов                     : Front: L C R, Side: L R, LFE
Частота                                  : 48,0 КГц
Частота кадров                           : 31,250 кадров/сек (1536 SPF)
Битовая глубина                          : 16 бит
Метод сжатия                             : С потерями
Размер потока                            : 418 Мбайт (7%)
Заголовок                                : Оригинал
Язык                                     : English
ServiceKind                              : Complete Main
Default                                  : Нет
Forced                                   : Нет

Текст #1
Идентификатор                            : 5
Формат                                   : UTF-8
Идентификатор кодека                     : S_TEXT/UTF8
Идентификатор кодека/Информация          : UTF-8 Plain Text
Продолжительность                        : 1 ч. 56 м.
Битрейт                                  : 0 бит/сек
ElementCount                             : 4
Размер потока                            : 216 байт (0%)
Заголовок                                : RUS Forced
Язык                                     : Russian
Default                                  : Да
Forced                                   : Нет

Текст #2
Идентификатор                            : 6
Формат                                   : UTF-8
Идентификатор кодека                     : S_TEXT/UTF8
Идентификатор кодека/Информация          : UTF-8 Plain Text
Продолжительность                        : 2 ч. 9 м.
Битрейт                                  : 77 бит/сек
ElementCount                             : 1576
Размер потока                            : 73,5 Кбайт (0%)
Заголовок                                : RUS Full
Язык                                     : Russian
Default                                  : Нет
Forced                                   : Нет

Текст #3
Идентификатор                            : 7
Формат                                   : UTF-8
Идентификатор кодека                     : S_TEXT/UTF8
Идентификатор кодека/Информация          : UTF-8 Plain Text
Продолжительность                        : 2 ч. 9 м.
Битрейт                                  : 49 бит/сек
ElementCount                             : 1568
Размер потока                            : 47,1 Кбайт (0%)
Заголовок                                : ENG
Язык                                     : English
Default                                  : Нет
Forced                                   : Нет

Меню
00:00:00.000                             : :00:00:00.000
00:06:20.672                             : :00:06:20.672
00:14:11.642                             : :00:14:11.642
00:22:12.873                             : :00:22:12.873
00:26:43.060                             : :00:26:43.060
00:31:29.721                             : :00:31:29.721
00:35:03.935                             : :00:35:03.935
00:42:49.734                             : :00:42:49.734
00:48:31.534                             : :00:48:31.534
00:59:38.784                             : :00:59:38.784
01:07:57.907                             : :01:07:57.907
01:17:30.604                             : :01:17:30.604
01:27:25.323                             : :01:27:25.323
01:36:08.721                             : :01:36:08.721
01:42:35.733                             : :01:42:35.733
01:49:19.887                             : :01:49:19.887
01:54:57.599                             : :01:54:57.599
02:00:37.522                             : :02:00:37.522



Скриншоты:
[+] Всего файлов в раздаче - 1:
Tor Ragnarjek_2017_BDRip_1080p_[HEVC]_10bit.mkv5.76 GB

Отзывы
Зарегистрируйтесь чтобы добавить комментарий.
Обратная связь
Copyleft ©