↑↓Torrent.by
Поиск
Логин: Регистрация
Пароль: Восстановить пароль
Загрузка...

Крип / Creep (2004) WEB-DL 1080p | P2 | Open Matte

Скачать krip-creep-2004-web-dl-1080p-p2-open-matte.torrent
U Магнитная ссылка Размер: 7.75 GB Раздают: 59 Качают: 30 Добавлен: 2018-03-11 09:09:41
Крип / Creep (2004) WEB-DL 1080p | P2 | Open Matte

Название: Крип (Урод)
Оригинальное название: Creep
Год выхода: 2004
Жанр:  ужасы, триллер
Режиссер: Кристофер Смит

В ролях: Франка Потенте, Вэс Блэквуд, Шон Харрис, Пол Рэттрэй, Келли Скотт, Стрэппер, Джереми Шеффилд, Кен Кэмпбелл, Морган Джонс, Дебора Уэстон

О фильме:
Лондон, холодная осенняя ночь. У Кейт не получается поймать такси, и она решает поехать на самом безопасном транспорте в мире — в метро. Будучи подвыпившей, Кейт засыпает и пропускает последний поезд. Вскоре она понимает, что метро закрылось и она оказалась в ловушке до самого утра. Но внезапно к платформе подъезжает пустой поезд, в который девушка с надеждой доехать домой немедленно садится. Поезд останавливается в туннеле, гаснет свет, и Кейт понимает, что она здесь далеко не одна

Страна: Великобритания, Германия
Выпущено: UK Film Council
Продолжительность: 01:25:13
Перевод: Профессиональный двухголосый закадровый

Файл
Качество: WEB-DL 1080p | Open Matte [WEB-DL Amazon]
Видео: MPEG-4 AVC / 11.7 Mb/s / 1920x1080 / 29.970 fps
Аудио#1: Russian / Dolby Digital Audio / 5.1 / 48 kHz / 384 kbps
Аудио#2: English / Dolby Digital Audio / 5.1 / 48 kHz / 640 kbps
Субтитры: Russian (Full), English (Full), English (Full, SDH)


[+] M/I
General
Unique ID                                : 219520652689538656885369057494913821087 (0xA52623CCB9DD074180C7CCDDFEBCA99F)
Complete name                            : F:Creep.2004.Open.Matte.1080p.WEB-DL.Rus.Eng.BLUEBIRD.mkv
Format                                   : Matroska
Format version                           : Version 2
File size                                : 7.75 GiB
Duration                                 : 1 h 25 min
Overall bit rate mode                    : Variable
Overall bit rate                         : 13.0 Mb/s
Encoded date                             : UTC 2018-02-22 14:02:47
Writing application                      : mkvmerge v5.5.0 ('Healer') built on Apr  6 2012 21:43:24
Writing library                          : libebml v1.2.3 + libmatroska v1.3.0
Cover                                    : Yes
Attachments                              : cover.jpg

Video
ID                                       : 1
Format                                   : AVC
Format/Info                              : Advanced Video Codec
Format profile                           : High@L4
Format settings                          : CABAC / 4 Ref Frames
Format settings, CABAC                   : Yes
Format settings, RefFrames               : 4 frames
Muxing mode                              : Header stripping
Codec ID                                 : V_MPEG4/ISO/AVC
Duration                                 : 1 h 25 min
Bit rate mode                            : Variable
Bit rate                                 : 11.7 Mb/s
Maximum bit rate                         : 15.0 Mb/s
Width                                    : 1 920 pixels
Height                                   : 1 080 pixels
Display aspect ratio                     : 16:9
Frame rate mode                          : Constant
Frame rate                               : 29.970 (30000/1001) FPS
Color space                              : YUV
Chroma subsampling                       : 4:2:0
Bit depth                                : 8 bits
Scan type                                : Progressive
Bits/(Pixel*Frame)                       : 0.189
Stream size                              : 6.99 GiB (90%)
Default                                  : Yes
Forced                                   : No
Color range                              : Limited
Color primaries                          : BT.709
Transfer characteristics                 : BT.709
Matrix coefficients                      : BT.709

Audio #1
ID                                       : 2
Format                                   : AC-3
Format/Info                              : Audio Coding 3
Format settings, Endianness              : Big
Muxing mode                              : Header stripping
Codec ID                                 : A_AC3
Duration                                 : 1 h 25 min
Bit rate mode                            : Constant
Bit rate                                 : 384 kb/s
Channel(s)                               : 6 channels
Channel positions                        : Front: L C R, Side: L R, LFE
Sampling rate                            : 48.0 kHz
Frame rate                               : 31.250 FPS (1536 SPF)
Bit depth                                : 16 bits
Compression mode                         : Lossy
Stream size                              : 234 MiB (3%)
Title                                    : DVO
Language                                 : Russian
Service kind                             : Complete Main
Default                                  : Yes
Forced                                   : Yes

Audio #2
ID                                       : 3
Format                                   : E-AC-3
Format/Info                              : Enhanced Audio Coding 3
Format settings, Endianness              : Big
Muxing mode                              : Header stripping
Codec ID                                 : A_EAC3
Duration                                 : 1 h 25 min
Bit rate mode                            : Constant
Bit rate                                 : 640 kb/s
Channel(s)                               : 6 channels
Channel positions                        : Front: L C R, Side: L R, LFE
Sampling rate                            : 48.0 kHz
Frame rate                               : 187.500 FPS (256 SPF)
Compression mode                         : Lossy
Stream size                              : 390 MiB (5%)
Title                                    : English - Amazon
Language                                 : English
Service kind                             : Complete Main
Default                                  : No
Forced                                   : No

Text #1
ID                                       : 4
Format                                   : UTF-8
Codec ID                                 : S_TEXT/UTF8
Codec ID/Info                            : UTF-8 Plain Text
Title                                    : Russian Full
Language                                 : Russian
Default                                  : No
Forced                                   : No

Text #2
ID                                       : 5
Format                                   : UTF-8
Codec ID                                 : S_TEXT/UTF8
Codec ID/Info                            : UTF-8 Plain Text
Title                                    : English Full
Language                                 : English
Default                                  : No
Forced                                   : No

Text #3
ID                                       : 6
Format                                   : UTF-8
Codec ID                                 : S_TEXT/UTF8
Codec ID/Info                            : UTF-8 Plain Text
Title                                    : English Full SDH - Amazon
Language                                 : English
Default                                  : No
Forced                                   : No



Скриншоты:
[+] Всего файлов в раздаче - 1:
Creep.2004.Open.Matte.1080p.WEB-DL.Rus.Eng.BLUEBIRD.mkv7.75 GB

Текущая раздача:
ДатаКомментарии    РазмерПиры
2018-03-11 U Крип / Creep (2004) WEB-DL 1080p | P2 | Open Matte 7.75 GB ↑ 59 ↓ 30

Похожие раздачи по запросу - крип:
2018-03-11 U Крип / Creep (2004) WEB-DLRip-AVC | P2 | Open Matte 1.42 GB ↑ 52 ↓ 17
2013-11-12 U Крип-А-Крип - Красная Жара - 2013 [WEB], AAC (tracks), 256 kbps 8К129.60 MB ↑ 113 ↓ 5
2013-10-29 U Крип / Creep (2004) HDTVRip 17К1.45 GB ↑ 16 ↓ 2

Отзывы
Зарегистрируйтесь чтобы добавить комментарий.
Обратная связь
Copyleft ©