↑↓Torrent.by
Поиск
Логин: Регистрация
Пароль: Восстановить пароль
Загрузка...

Сёстры по степу / Step Sisters (2018) WEBRip 1080p | GreenРай Studio

Скачать sestry-po-stepu-step-sisters-2018-webrip-1080p-greenray-studio.torrent
U Магнитная ссылка Размер: 3.23 GB Раздают: 44 Качают: 62 Добавлен: 2018-03-11 10:51:55
Сёстры по степу / Step Sisters (2018) WEBRip 1080p | GreenРай Studio

Год выхода 2017
Наименование: Сёстры по степу
Оригинальное наименование: Step Sisters
Произведено: США
Жанр:  комедия
Режиссер постановщик: Чарльз Стоун III
В главных ролях: Мэгалин Эчиканвоке, Иден Шер, Линдон Смит, Гейдж Голайтли, Алессандра Торесон, Ниа Джервьер, Марке Ричардсон II, Нэтари Наутон, Мэтт МакГорри, Шерил Ли Ральф

О фильме: Дочь выпускников Гарварда Джамила надеется получить от родителей рекомендацию, чтобы попасть на юридический факультет. А пока она подрабатывает помощником руководителя учебной части и учится в колледже, также являясь участницей местной афроамериканской танцевальной команды по степу. Но родители отказывают дочери в рекомендации, считая, что она должна сама попасть в Гарвард. В ближайший вечер Джамила напивается на дикой вечеринке соседнего женского сообщества, фотографии которой попадают в интернет, что сильно портит репутацию учебного заведения. Руководитель, сам выпускник Гарварда, обещает Джамиле рекомендацию, если та восстановит честь сообщества, собрав новую команду по степу - теперь из белых участниц опозорившегося сообщества.

Файл
Качество:  WEBRip 1080p
Видео данные: AVC, 1920x810 (2:40:1), 23.976 fps, 4052 Кбит/с
Аудио данные: AC3, 2 ch, 192 Кбит/с
Перевод: Любительский многоголосый (GreenРай Studio)
Продолжительность: 01:48:21

Внимание, имеется  видео и аудио реклама от спонсора показа

Над релизом работали:
Состав дикторов:  Руслан Чериев, Мария Морошкина, Дмитрий Коляденко
Руководитель проекта и координатор: Евгений Овчаренко
Организатор и координатор: Никита Марков
Пиар менеджер студии: Гриша Чернозатонский
Техническая поддержка: Александр Методий

Релиз:


[+] Медиаинфо
General
Complete name                            : D:ГРИНРАЙСёстры по степу [1080p].mp4
Format                                   : MPEG-4
Format profile                           : Base Media
Codec ID                                 : isom (isom/iso2/avc1/mp41)
File size                                : 3.23 GiB
Duration                                 : 1 h 48 min
Overall bit rate                         : 4 248 kb/s
Writing application                      : Lavf57.83.100

Video
ID                                       : 1
Format                                   : AVC
Format/Info                              : Advanced Video Codec
Format profile                           : High@L4
Format settings                          : CABAC / 5 Ref Frames
Format settings, CABAC                   : Yes
Format settings, RefFrames               : 5 frames
Codec ID                                 : avc1
Codec ID/Info                            : Advanced Video Coding
Duration                                 : 1 h 48 min
Bit rate                                 : 4 052 kb/s
Width                                    : 1 920 pixels
Height                                   : 810 pixels
Display aspect ratio                     : 2.40:1
Frame rate mode                          : Constant
Frame rate                               : 23.976 (24000/1001) FPS
Color space                              : YUV
Chroma subsampling                       : 4:2:0
Bit depth                                : 8 bits
Scan type                                : Progressive
Bits/(Pixel*Frame)                       : 0.109
Stream size                              : 3.08 GiB (95%)
Writing library                          : x264 core 152 r2851bm ba24899
Encoding settings                        : cabac=1 / ref=5 / deblock=1:-1:-1 / analyse=0x3:0x113 / me=hex / subme=8 / psy=1 / psy_rd=1.00:0.15 / mixed_ref=1 / me_range=16 / chroma_me=1 / trellis=2 / 8x8dct=1 / cqm=0 / deadzone=21,11 / fast_pskip=1 / chroma_qp_offset=-3 / threads=8 / lookahead_threads=8 / sliced_threads=1 / slices=8 / nr=0 / decimate=1 / interlaced=0 / bluray_compat=0 / constrained_intra=0 / bframes=3 / b_pyramid=2 / b_adapt=1 / b_bias=0 / direct=3 / weightb=1 / open_gop=0 / weightp=2 / keyint=250 / keyint_min=23 / scenecut=40 / intra_refresh=0 / rc_lookahead=0 / rc=crf / mbtree=0 / crf=21.0 / qcomp=0.60 / qpmin=0 / qpmax=69 / qpstep=4 / vbv_maxrate=5000 / vbv_bufsize=10000 / crf_max=0.0 / nal_hrd=none / filler=0 / ip_ratio=1.40 / pb_ratio=1.30 / aq=1:1.00

Audio
ID                                       : 2
Format                                   : AC-3
Format/Info                              : Audio Coding 3
Codec ID                                 : ac-3
Duration                                 : 1 h 48 min
Bit rate mode                            : Constant
Bit rate                                 : 192 kb/s
Channel(s)                               : 2 channels
Channel positions                        : Front: L R
Sampling rate                            : 48.0 kHz
Frame rate                               : 31.250 FPS (1536 SPF)
Bit depth                                : 16 bits
Compression mode                         : Lossy
Stream size                              : 150 MiB (5%)
Service kind                             : Complete Main
Default                                  : Yes
Alternate group                          : 1



Скриншоты:
[+] Всего файлов в раздаче - 1:
Step.Sisters.2018.P.WEBRip.1080p.mp43.23 GB

Отзывы
Зарегистрируйтесь чтобы добавить комментарий.
Обратная связь
Copyleft ©