↑↓Torrent.by
Поиск
Логин: Регистрация
Пароль: Восстановить пароль
Загрузка...

Остров сокровищ (1988) BDRip-HEVC 1080p от Cthulhu

Скачать ostrov-sokrovisch-1988-bdrip-hevc-1080p-ot-cthulhu.torrent
U Магнитная ссылка Размер: 4.51 GB Раздают: 91 Качают: 30 Добавлен: 2018-03-11 10:52:18
Остров сокровищ (1988) BDRip-HEVC 1080p от Cthulhu

Название: Остров сокровищ
Год выхода: 1988
Жанр: мультфильм, приключения, семейный, экранизация
Режиссер: Давид Черкасский
В ролях: Владимир Заднепровский, Евгений Паперный, Армен Джигарханян, Юрий Яковлев, Валерий Бессараб, Борис Вознюк, Георгий Кишко, Валерий Чигляев, Виктор Андриенко, Григорий Толчинский

О фильме:
Цветной, рисованный, полнометражный мультипликационный фильм по мотивам романа Роберта Льюиса Стивенсона сделан в нетрадиционной манере - он совмещает рисунок с игровыми моментами, в нем современная музыка и песни. Все персонажи и ситуации выписаны карикатурно, с юмором, действие подано в комедийном ключе и развертывается весьма динамично. Шхуна "Испаньола" бороздит морские просторы в поисках острова, на котором спрятаны легендарные сокровища капитана пиратов Флинта. На корабле зреет заговор. Разбойники во главе с одноногим Джоном Сильвером, кажется, близки к цели...

Страна: СССР
Продолжительность: 01:51:16
Перевод: Не требуется

Файл
Кодек: HEVC x265 10bit
Качество: BDRip-HEVC 1080p
Видео: 1484x1080, 24.000 кадр/сек, 5355 Кбит/сек, (Main 10@L4.1@High) 10bit
Звук:
Аудио: Русская, AC3 448 Кбит/сек, 6 канала(ов),16bit 48,0 КГц
Субтитры: Нет
Навигация по главам: Есть

Релиз от: Cthulhu


[+] Mediainfo
General
Unique ID                   : 287524383396509101538348348561116080911 (0xD84F2E95BF9FFA7E7ED889580D9FAB0F)
Complete name               : F:HEVCОстров сокровищ (1988) BDRip 1080p [HEVC] 10Bit_Cthulhu.mkv
Format                      : Matroska
Format version              : Version 4 / Version 2
File size                   : 4.51 GiB
Duration                    : 1 h 51 min
Overall bit rate            : 5 805 kb/s
Movie name                  : Остров сокровищ (1988)_rip_by_Cthulhu
Encoded date                : UTC 2018-03-10 07:30:48
Writing application         : mkvmerge v21.0.0 ('Tardigrades Will Inherit The Earth') 64-bit
Writing library             : libebml v1.3.5 + libmatroska v1.4.8
Cover                       : Yes
Attachments                 : cover.jpg

Video
ID                          : 1
Format                      : HEVC
Format/Info                 : High Efficiency Video Coding
Format profile              : Main 10@L4.1@High
Codec ID                    : V_MPEGH/ISO/HEVC
Duration                    : 1 h 51 min
Bit rate                    : 5 355 kb/s
Width                       : 1 484 pixels
Height                      : 1 080 pixels
Display aspect ratio        : 1.374
Frame rate mode             : Constant
Frame rate                  : 24.000 FPS
Color space                 : YUV
Chroma subsampling          : 4:2:0
Bit depth                   : 10 bits
Bits/(Pixel*Frame)          : 0.139
Stream size                 : 4.16 GiB (92%)
Writing library             : x265 2.6+49-7219376de42a:[Windows][clang 7.0.0][64 bit] 10bit
Encoding settings           : cpuid=1050111 / frame-threads=5 / numa-pools=4 / wpp / no-pmode / no-pme / no-psnr / no-ssim / log-level=3 / input-csp=1 / input-res=1484x1080 / interlace=0 / total-frames=0 / level-idc=41 / high-tier=1 / uhd-bd=0 / ref=4 / allow-non-conformance / no-repeat-headers / annexb / no-aud / no-hrd / info / hash=0 / no-temporal-layers / open-gop / min-keyint=23 / keyint=250 / gop-lookahead=0 / bframes=10 / b-adapt=2 / b-pyramid / bframe-bias=0 / rc-lookahead=40 / lookahead-slices=6 / scenecut=40 / radl=0 / no-intra-refresh / ctu=64 / min-cu-size=8 / no-rect / no-amp / max-tu-size=32 / tu-inter-depth=3 / tu-intra-depth=3 / limit-tu=0 / rdoq-level=2 / dynamic-rd=0.00 / no-ssim-rd / signhide / no-tskip / nr-intra=0 / nr-inter=0 / no-constrained-intra / no-strong-intra-smoothing / max-merge=3 / limit-refs=3 / no-limit-modes / me=2 / subme=5 / merange=57 / temporal-mvp / weightp / weightb / no-analyze-src-pics / deblock=-3:-3 / no-sao / no-sao-non-deblock / rd=3 / no-early-skip / rskip / no-fast-intra / no-tskip-fast / no-cu-lossless / no-b-intra / no-splitrd-skip / rdpenalty=0 / psy-rd=1.00 / psy-rdoq=0.00 / no-rd-refine / no-lossless / cbqpoffs=0 / crqpoffs=0 / rc=crf / crf=19.5 / qcomp=0.60 / qpstep=4 / stats-write=0 / stats-read=0 / vbv-maxrate=50000 / vbv-bufsize=35714 / vbv-init=0.9 / crf-max=0.0 / crf-min=0.0 / ipratio=1.40 / pbratio=1.30 / aq-mode=1 / aq-strength=0.70 / cutree / zone-count=0 / no-strict-cbr / qg-size=32 / no-rc-grain / qpmax=69 / qpmin=0 / no-const-vbv / sar=1 / overscan=0 / videoformat=5 / range=0 / colorprim=1 / transfer=1 / colormatrix=1 / chromaloc=0 / display-window=0 / max-cll=0,0 / min-luma=0 / max-luma=1023 / log2-max-poc-lsb=8 / vui-timing-info / vui-hrd-info / slices=1 / no-opt-qp-pps / no-opt-ref-list-length-pps / no-multi-pass-opt-rps / scenecut-bias=0.05 / no-opt-cu-delta-qp / no-aq-motion / no-hdr / no-hdr-opt / no-dhdr10-opt / analysis-reuse-level=5 / scale-factor=0 / refine-intra=0 / refine-inter=0 / refine-mv=0 / no-limit-sao / ctu-info=0 / no-lowpass-dct / refine-mv-type=0 / copy-pic=1
Language                    : Russian
Default                     : Yes
Forced                      : No
Color range                 : Limited
Color primaries             : BT.709
Transfer characteristics    : BT.709
Matrix coefficients         : BT.709

Audio
ID                          : 2
Format                      : AC-3
Format/Info                 : Audio Coding 3
Format settings, Endianness : Big
Codec ID                    : A_AC3
Duration                    : 1 h 51 min
Bit rate mode               : Constant
Bit rate                    : 448 kb/s
Channel(s)                  : 6 channels
Channel positions           : Front: L C R, Side: L R, LFE
Sampling rate               : 48.0 kHz
Frame rate                  : 31.250 FPS (1536 SPF)
Bit depth                   : 16 bits
Compression mode            : Lossy
Stream size                 : 357 MiB (8%)
Language                    : Russian
Service kind                : Complete Main
Default                     : Yes
Forced                      : No

Menu
00:00:00.000                : :Первая серия
00:49:31.104                : :Вторая серия




Скриншоты:
[+] Всего файлов в раздаче - 1:
Остров сокровищ (1988) BDRip 1080p [HEVC] 10Bit_Cthulhu.mkv4.51 GB

Текущая раздача:
ДатаКомментарии    РазмерПиры
2018-03-11 U Остров сокровищ (1988) BDRip-HEVC 1080p от Cthulhu 4.51 GB ↑ 91 ↓ 30

Показать еще раздачи по запросу остров:
2018-05-05 U Остров надежды / Stranded (2002) DVDRip-AVC от ExKinoRay | P 1.08 GB ↑ 73 ↓ 27
2018-03-24 U Возвращение на остров сокровищ / Return to Treasure (1996) DVDRip от NovaLan | P 1К1.46 GB ↑ 109 ↓ 50
2018-03-14 U Остров сокровищ (1988) HDRip от Scarabey | Реставрация 1.41 GB ↑ 68 ↓ 19
2018-03-08 U Остров [S02] (2017) HDTV 1080i от MediaClub 25.86 GB ↑ 108 ↓ 320
2018-03-08 U Остров [S02] (2017) HDTVRip 720p от MediaClub 11.36 GB ↑ 103 ↓ 398
2018-03-08 U Остров [S02] (2017) HDTVRip от GeneralFilm 3.45 GB ↑ 125 ↓ 333
2018-03-07 U Остров [02х01-18 из 19] (2017) HDTVRip от GeneralFilm 3.27 GB ↑ 66 ↓ 221

Отзывы
Зарегистрируйтесь чтобы добавить комментарий.
Обратная связь
Copyleft ©