↑↓Torrent.by
Поиск
Логин: Регистрация
Пароль: Восстановить пароль
Загрузка...

Форма воды / The Shape of Water (2017) BDRip 1080p от qqss44 & MegaPeer | iTunes

Скачать forma-vody-the-shape-of-water-2017-bdrip-1080p-ot-qqss44-megapeer-itunes.torrent
U Магнитная ссылка Размер: 7.53 GB Раздают: 384 Качают: 216 Добавлен: 2018-03-11 15:39:39
Форма воды / The Shape of Water (2017) BDRip 1080p от qqss44 & MegaPeer | iTunes

Анонсы 1080p от qqss44✘ ФОРМА ВОДЫ ✘


✦ Год выхода: 2017
✦ Название: Форма воды
✦ Жанр: Фэнтези, драма, приключения
✦ Оригинальное название: The Shape of Water
✦ Режиссер: Гильермо Дель Торо
✦ В ролях: Салли Хокинс, Майкл Шеннон, Ричард Дженкинс, Октавия Спенсер, Майкл Стулбарг, Даг Джонс, Дэвид Хьюлетт, Ник Сирси, Стюарт Арнотт, Найджел Беннетт

Описание фильма
Действие разворачивается в 1963 году. Главная героиня — немая уборщица в научной лаборатории. В стенах секретного учреждения идёт работа по изучению отловленного человека-амфибии. Женщина влюбляется в мутанта и помогает ему бежать...

✦ Страна: США
✦ Продолжительность: 02:03:19
✦ Перевод: дублированный - iTunes

Информация о файле
✦ Формат:| MKV | x264 |
✦ Качество: BDRip 1080p
✦ Видео: X264/MPEG4-AVC | 1920x1038 (1,85:1) | ~8355 kbps | 23.976 fps
✦ Аудио Rus: AC3 | 48 KHz | 5.1 (Front: L С R Side: L R) + LFE | ~384 kbps
✦ Субтитры: | русские форсированные (стилизованные, анимированные, вшиты в видео)

✦ Релиз от:


[+] ✘ MediaInfo ✘

x264 [info]: frame I:1334  Avg QP:12.03  size:233010
x264 [info]: frame P:43124 Avg QP:15.15  size: 86132
x264 [info]: frame B:132951 Avg QP:17.22  size: 27818

Общее
Уникальный идентификатор                 : 178245027034566493255490489229634713094 (0x8618BE560AC7B09D8DE8233C07443606)
Полное имя                               : H:The.Shape.of.Water.(2017).BDRip-1080p.MegaPeer.(qqss44).mkv
Формат                                   : Matroska
Версия формата                           : Version 2
Размер файла                             : 7,53 Гбайт
Продолжительность                        : 2 ч. 3 м.
Общий поток                              : 8736 Кбит/сек
Название фильма                          : The.Shape.of.Water.(2017).BDRip-1080p.MegaPeer.(qqss44)
Дата кодирования                         : UTC 2018-03-11 09:24:49
Программа кодирования                    : mkvmerge v5.8.0 ('No Sleep / Pillow') built on Sep  2 2012 15:37:04
Библиотека кодирования                   : libebml v1.2.3 + libmatroska v1.3.0

Видео
Идентификатор                            : 1
Формат                                   : AVC
Формат/Информация                        : Advanced Video Codec
Профиль формата                          : High@L4.1
Параметр CABAC формата                   : Да
Параметр ReFrames формата                : 4 кадра
Идентификатор кодека                     : V_MPEG4/ISO/AVC
Продолжительность                        : 2 ч. 3 м.
Битрейт                                  : 8355 Кбит/сек
Ширина                                   : 1920 пикселей
Высота                                   : 1038 пикселей
Соотношение сторон                       : 1,85:1
Режим частоты кадров                     : Постоянный
Частота кадров                           : 23,976 (24000/1001) кадра/сек
Цветовое пространство                    : YUV
Субдискретизация насыщенности            : 4:2:0
Битовая глубина                          : 8 бит
Тип развёртки                            : Прогрессивная
Бит/(Пиксели*Кадры)                      : 0.175
Размер потока                            : 7,04 Гбайт (94%)
Библиотека кодирования                   : x264 core 152 r2851 ba24899
Настройки программы                      : cabac=1 / ref=4 / deblock=1:-3:-3 / analyse=0x3:0x113 / me=umh / subme=11 / psy=1 / psy_rd=1.00:0.00 / mixed_ref=1 / me_range=32 / chroma_me=1 / trellis=2 / 8x8dct=1 / cqm=0 / deadzone=21,11 / fast_pskip=0 / chroma_qp_offset=-2 / threads=12 / lookahead_threads=2 / sliced_threads=0 / nr=0 / decimate=0 / interlaced=0 / bluray_compat=0 / constrained_intra=0 / bframes=9 / b_pyramid=2 / b_adapt=2 / b_bias=0 / direct=3 / weightb=1 / open_gop=0 / weightp=2 / keyint=250 / keyint_min=23 / scenecut=40 / intra_refresh=0 / rc_lookahead=40 / rc=2pass / mbtree=0 / bitrate=8355 / ratetol=1.0 / qcomp=0.65 / qpmin=0 / qpmax=69 / qpstep=4 / cplxblur=20.0 / qblur=0.5 / vbv_maxrate=50000 / vbv_bufsize=62500 / nal_hrd=none / filler=0 / ip_ratio=1.40 / pb_ratio=1.30 / aq=3:0.70
Язык                                     : English
Default                                  : Да
Forced                                   : Нет

Аудио
Идентификатор                            : 2
Формат                                   : AC-3
Формат/Информация                        : Audio Coding 3
Расширение режима                        : CM (complete main)
Параметр Endianness формата              : Big
Идентификатор кодека                     : A_AC3
Продолжительность                        : 2 ч. 3 м.
Вид битрейта                             : Постоянный
Битрейт                                  : 384 Кбит/сек
Каналы                                   : 6 каналов
Расположение каналов                     : Front: L C R, Side: L R, LFE
Частота                                  : 48,0 КГц
Частота кадров                           : 31,250 кадров/сек (1536 spf)
Метод сжатия                             : С потерями
Размер потока                            : 339 Мбайт (4%)
Язык                                     : Russian
Default                                  : Да
Forced                                   : Нет

Меню
00:00:00.000                             : en:00:00:00.000
00:06:24.467                             : en:00:06:24.467
00:12:54.774                             : en:00:12:54.774
00:18:32.987                             : en:00:18:32.987
00:23:45.591                             : en:00:23:45.591
00:29:39.653                             : en:00:29:39.653
00:35:29.836                             : en:00:35:29.836
00:39:30.535                             : en:00:39:30.535
00:42:42.435                             : en:00:42:42.435
00:48:34.036                             : en:00:48:34.036
00:52:26.935                             : en:00:52:26.935
00:57:30.197                             : en:00:57:30.197
01:01:52.542                             : en:01:01:52.542
01:07:35.551                             : en:01:07:35.551
01:12:13.496                             : en:01:12:13.496
01:17:50.791                             : en:01:17:50.791
01:21:17.122                             : en:01:21:17.122
01:26:05.911                             : en:01:26:05.911
01:32:48.480                             : en:01:32:48.480
01:37:18.750                             : en:01:37:18.750
01:43:24.115                             : en:01:43:24.115
01:46:06.610                             : en:01:46:06.610
01:50:31.667                             : en:01:50:31.667
01:58:34.858                             : en:01:58:34.858




Скриншоты:
[+] Всего файлов в раздаче - 1:
The.Shape.of.Water.(2017).BDRip-1080p.MegaPeer.(qqss44).mkv7.53 GB

Текущая раздача:
ДатаКомментарии    РазмерПиры
2018-03-11 U Форма воды / The Shape of Water (2017) BDRip 1080p от qqss44 & MegaPeer | iTunes 2 К 7.53 GB ↑ 384 ↓ 216

Показать еще раздачи по запросу форма:
2018-03-16 U Форма воды / The Shape of Water (2017) BDRip-HEVC 1080p | 60 fps | iTunes 7.52 GB ↑ 87 ↓ 58
2018-03-09 U Форма воды / The Shape of Water (2017) BDRemux 2160p от ExKinoRay | 4K | HDR | iTunes 48.49 GB ↑ 167 ↓ 223
2018-03-09 U Форма воды / The Shape of Water (2017) BDRip-AVC | iTunes 802.20 MB ↑ 134 ↓ 32
2018-03-09 U Форма воды / The Shape of Water (2017) BDRip от ExKinoRay | iTunes 2.13 GB ↑ 91 ↓ 34
2018-03-09 U Форма воды / The Shape of Water (2017) HDRip от Scarabey | iTunes 1К2.12 GB ↑ 499 ↓ 45
2018-03-09 U Форма воды / The Shape of Water (2017) BDRip-HEVC 1080p от HEVC CLUB | iTunes 1К3.28 GB ↑ 206 ↓ 93
2018-03-08 U Форма воды / The Shape of Water (2017) BDRip-AVC от HELLYWOOD | iTunes 2.12 GB ↑ 193 ↓ 115

Отзывы
draiver747
Конечно, заметно, что фильм снял мастер. Не более. Эмоций не вызвал, все какое-то не настоящее. К названию можно добавить в скобках - "100 оттенков зеленого". Я этот цвет не очень жалую, а его в фильме ну очень-очень много. "Красота по американски" тоже начиналась с мастурбации. Может это важный фактор для получения Оскара? Я бы премию "за лучший фильм" не дал.

Reset
фильм неплохой, но за что Оскар я так и не понял

Зарегистрируйтесь чтобы добавить комментарий.
Обратная связь
Copyleft ©