↑↓Torrent.by
Поиск
Логин: Регистрация
Пароль: Восстановить пароль
Загрузка...

Девушка в тумане / La ragazza nella nebbia (2017) BDRemux 1080p | iTunes

Скачать devushka-v-tumane-la-ragazza-nella-nebbia-2017-bdremux-1080p-itunes.torrent
U Магнитная ссылка Размер: 25.78 GB Раздают: 107 Качают: 141 Добавлен: 2018-03-11 15:39:53
Девушка в тумане / La ragazza nella nebbia (2017) BDRemux 1080p | iTunes

Название: Девушка в тумане
Оригинальное название: La ragazza nella nebbia
Год выхода: 2017
Жанр: Триллер, криминал
Режиссер: Донато Карризи
В ролях: Тони Сервилло, Жан Рено, Алессио Бони, Лоренцо Рикельми, Галатеа Ранци, Микела Ческон, Лукреция Гидоне, Даниэла Пьяцца, Якопо Ольмо Антинори, Марина Оккьонеро

О фильме:
Холодной зимней ночью психиатра Аугусто Флореса срочно вызывают на работу, чтобы обследовать попавшего в аварию инспектора Фогеля. Инспектор ничего не помнит, на месте аварии ничто не указывает на ее причину и на ее жертв, однако рубашка Фогеля в пятнах свежей крови, и эта кровь не его. В ходе беседы начинает восстанавливаться цепь невероятных событий, начавшихся месяц назад...


Страна: Италия, Германия, Франция
Студия: Colorado Film Production
Продолжительность: 02:08:18
Перевод: Дублированный (iTunes)

Файл
Кодек: MPEG-4 AVC
Качество: BDRemux | iTunes
Видео: AVC/H.264, 1920x1080, 26,9 Mbps, 24.00 fps
Звук:
Аудио 1: AC3, 6 ch, 384 Kbps - Русский
Аудио 2: DTS, 6 ch, 1509 Kbps - Итальянский
Субтитры: Русские, Английские


[+] Mediainfo
Общее
Уникальный идентификатор                 : 186041877981046535831163427397072845276 (0x8BF65CC45ECDB4829AD043D9E113F9DC)
Полное имя                               : La ragazza nella nebbia.2017.BDRemux.mkv
Формат                                   : Matroska
Версия формата                           : Version 4 / Version 2
Размер файла                             : 25,8 Гбайт
Продолжительность                        : 2 ч. 8 м.
Режим общего битрейта                    : Переменный
Общий поток                              : 28,8 Мбит/сек
Название фильма                          : La ragazza nella nebbia.2017.BDRemux
Дата кодирования                         : UTC 2018-03-10 20:53:52
Программа кодирования                    : mkvmerge v17.0.0 ('Be Ur Friend') 64-bit
Библиотека кодирования                   : libebml v1.3.5 + libmatroska v1.4.8

Видео
Идентификатор                            : 1
Формат                                   : AVC
Формат/Информация                        : Advanced Video Codec
Профиль формата                          : High@L4.1
Настройки формата                        : CABAC / 4 Ref Frames
Параметр CABAC формата                   : Да
Параметр RefFrames формата               : 4 кадра
Параметр GOP формата                     : M=3, N=12
Идентификатор кодека                     : V_MPEG4/ISO/AVC
Продолжительность                        : 2 ч. 8 м.
Вид битрейта                             : Переменный
Битрейт                                  : 26,9 Мбит/сек
Максимальный битрейт                     : 34,0 Мбит/сек
Ширина                                   : 1920 пикселей
Высота                                   : 1080 пикселей
Соотношение сторон                       : 16:9
Режим частоты кадров                     : Постоянный
Частота кадров                           : 24,000 кадра/сек
Стандарт вещания                         : NTSC
Цветовое пространство                    : YUV
Субдискретизация насыщенности            : 4:2:0
Битовая глубина                          : 8 бит
Тип развёртки                            : Прогрессивная
Бит/(Пиксели*Кадры)                      : 0.540
Размер потока                            : 24,1 Гбайт (93%)
Язык                                     : Italian
Default                                  : Да
Forced                                   : Нет
Цветовой диапазон                        : Limited
Основные цвета                           : BT.709
Характеристики трансфера                 : BT.709
Коэффициенты матрицы                     : BT.709

Аудио #1
Идентификатор                            : 2
Формат                                   : AC-3
Формат/Информация                        : Audio Coding 3
Идентификатор кодека                     : A_AC3
Продолжительность                        : 2 ч. 8 м.
Вид битрейта                             : Постоянный
Битрейт                                  : 384 Кбит/сек
Каналы                                   : 6 каналов
Расположение каналов                     : Front: L C R, Side: L R, LFE
Частота                                  : 48,0 КГц
Частота кадров                           : 31,250 кадров/сек (1536 SPF)
Битовая глубина                          : 16 бит
Метод сжатия                             : С потерями
Размер потока                            : 352 Мбайт (1%)
Заголовок                                : DUB | iTunes
Язык                                     : Russian
ServiceKind                              : Complete Main
Default                                  : Да
Forced                                   : Нет

Аудио #2
Идентификатор                            : 3
Формат                                   : DTS
Формат/Информация                        : Digital Theater Systems
Идентификатор кодека                     : A_DTS
Продолжительность                        : 2 ч. 8 м.
Вид битрейта                             : Постоянный
Битрейт                                  : 1509 Кбит/сек
Каналы                                   : 6 каналов
Расположение каналов                     : Front: L C R, Side: L R, LFE
Частота                                  : 48,0 КГц
Частота кадров                           : 93,750 кадра/сек (512 SPF)
Битовая глубина                          : 24 бит
Метод сжатия                             : С потерями
Размер потока                            : 1,35 Гбайт (5%)
Язык                                     : Italian
Default                                  : Нет
Forced                                   : Нет

Текст #1
Идентификатор                            : 4
Формат                                   : UTF-8
Идентификатор кодека                     : S_TEXT/UTF8
Идентификатор кодека/Информация          : UTF-8 Plain Text
Продолжительность                        : 1 ч. 59 м.
Битрейт                                  : 77 бит/сек
ElementCount                             : 1086
Размер потока                            : 67,6 Кбайт (0%)
Заголовок                                : Full
Язык                                     : Russian
Default                                  : Нет
Forced                                   : Нет

Текст #2
Идентификатор                            : 5
Формат                                   : UTF-8
Идентификатор кодека                     : S_TEXT/UTF8
Идентификатор кодека/Информация          : UTF-8 Plain Text
Продолжительность                        : 1 ч. 59 м.
Битрейт                                  : 45 бит/сек
ElementCount                             : 1085
Размер потока                            : 39,9 Кбайт (0%)
Заголовок                                : Full
Язык                                     : English
Default                                  : Нет
Forced                                   : Нет

Меню
00:00:00.000                             : en:Chapter 01
00:06:17.875                             : en:Chapter 02
00:15:48.041                             : en:Chapter 03
00:22:44.500                             : en:Chapter 04
00:31:22.083                             : en:Chapter 05
00:39:51.750                             : en:Chapter 06
00:47:44.416                             : en:Chapter 07
00:54:36.416                             : en:Chapter 08
01:01:11.750                             : en:Chapter 09
01:11:32.083                             : en:Chapter 10
01:18:15.791                             : en:Chapter 11
01:27:31.708                             : en:Chapter 12
01:38:13.875                             : en:Chapter 13
01:47:45.541                             : en:Chapter 14
01:57:28.083                             : en:Chapter 15



Скриншоты:
[+] Всего файлов в раздаче - 1:
La ragazza nella nebbia.2017.BDRemux.mkv25.78 GB

Текущая раздача:
ДатаКомментарии    РазмерПиры
2018-03-11 U Девушка в тумане / La ragazza nella nebbia (2017) BDRemux 1080p | iTunes 25.78 GB ↑ 107 ↓ 141

Показать еще раздачи по запросу девушка:
2018-05-04 U Девушка в тумане / La ragazza nella nebbia (2017) HDRip от Scarabey | iTunes 2.14 GB ↑ 55 ↓ 20
2018-05-04 U Девушка в тумане / La ragazza nella nebbia (2017) HDRip от Scarabey | iTunes 795.68 MB ↑ 27 ↓ 8
2018-04-15 U Девушка в тумане / La ragazza nella nebbia (2017) BDRip-AVC от ExKinoRay | iTunes 746.04 MB ↑ 171 ↓ 35
2018-03-21 U StandUp: Уитни Каммингс: Я твоя девушка / Whitney Cummings: I'm Your Girlfriend (2016) WEBRip 720p от AllStandUp | Sub 2.02 GB ↑ 123 ↓ 14
2018-03-16 U Девушка в тумане / La ragazza nella nebbia (2017) BDRip 1080p | iTunes 7.53 GB ↑ 176 ↓ 35
2018-03-13 U Девушка в тумане / La ragazza nella nebbia (2017) BDRip от ExKinoRay | iTunes 2.13 GB ↑ 124 ↓ 48
2018-03-12 U Девушка в тумане / La ragazza nella nebbia (2017) BDRip от ExKinoRay | iTunes 1.46 GB ↑ 142 ↓ 47

Отзывы
Зарегистрируйтесь чтобы добавить комментарий.
Обратная связь
Copyleft ©