↑↓Torrent.by
Поиск
Логин: Регистрация
Пароль: Восстановить пароль
Загрузка...

Трон эльфов / Throne of Elves (2016) BDRip-HEVC 1080p | iTunes

Скачать tron-elfov-throne-of-elves-2016-bdrip-hevc-1080p-itunes.torrent
U Магнитная ссылка Размер: 7.20 GB Раздают: 142 Качают: 55 Добавлен: 2018-03-11 15:40:03
Трон эльфов / Throne of Elves (2016) BDRip-HEVC 1080p | iTunes

Название: Трон эльфов
Оригинальное название: Throne of Elves
Год выхода: 2016
Жанр: Мультфильм, фэнтези, приключения, семейный
Режиссер: И Гэ, Сун Юэфэн
В ролях: Эшли Боеттчер, Гилберт Боус, Гэвин Хаммон, Джули Натансон, Джон Олсон, Райан Поттер, Енн Рейтел, Кевин Майкл Ричардсон, Аника Нони Роуз, Стефани Ше

О фильме:
Юный воин Ламберт получает приглашение на свадьбу принцессы Страны Эльфов. Обрадованный возможностью вновь увидеться с молодой эльфийкой Лийей, он собирается в путь на воздушном корабле. В краю эльфов между тем не все спокойно: владычица Темных Эльфов Елена планирует нарушить свадебную церемонию, чтобы, застав врасплох придворных, захватить древний кристалл Черного Дракона.

Страна: Китай, США
Студия: Mili Pictures
Продолжительность: 01:38:56
Перевод: Дублированный | iTunes

Файл
Кодек: x265 HEVC
Качество: BDRip-HEVC 1080p
Видео: 9 822 kb/s, 1920x1080, 23.976fps
Звук: русский, AC3, 48000Hz, 6ch, 384kbps
Субтитры: нет


[+] MediaInfo
General
Unique ID                      : 176638829683744837823800289934382077438 (0x84E366B14DD1FB9095BA198CABC615FE)
Complete name                  : d:VideosТрон эльфов.2016.BDRip-HEVC.1080p.iTunes.mkv
Format                         : Matroska
Format version                 : Version 4 / Version 2
File size                      : 7.20 GiB
Duration                       : 1 h 38 min
Overall bit rate               : 10.4 Mb/s
Encoded date                   : UTC 2017-09-19 13:21:19
Writing application            : Lavf58.10.100
Writing library                : Lavf58.10.100
ErrorDetectionType             : Per level 1

Video
ID                             : 1
Format                         : HEVC
Format/Info                    : High Efficiency Video Coding
Format profile                 : Main@L4.1@Main
Codec ID                       : V_MPEGH/ISO/HEVC
Duration                       : 1 h 38 min
Bit rate                       : 9 822 kb/s
Width                          : 1 920 pixels
Height                         : 1 080 pixels
Display aspect ratio           : 16:9
Frame rate mode                : Constant
Frame rate                     : 23.976 (24000/1001) FPS
Standard                       : Component
Color space                    : YUV
Chroma subsampling             : 4:2:0
Bit depth                      : 8 bits
Bits/(Pixel*Frame)             : 0.198
Stream size                    : 6.79 GiB (94%)
Writing library                : Lavc58.14.100 nvenc_hevc
Language                       : Chinese
Default                        : Yes
Forced                         : No
Color range                    : Limited

Audio
ID                             : 2
Format                         : AC-3
Format/Info                    : Audio Coding 3
Codec ID                       : A_AC3
Duration                       : 1 h 38 min
Bit rate mode                  : Constant
Bit rate                       : 384 kb/s
Channel(s)                     : 6 channels
Channel positions              : Front: L C R, Side: L R, LFE
Sampling rate                  : 48.0 kHz
Frame rate                     : 31.250 FPS (1536 SPF)
Bit depth                      : 16 bits
Compression mode               : Lossy
Stream size                    : 272 MiB (4%)
Title                          : iTunes
Language                       : Russian
Service kind                   : Complete Main
Default                        : Yes
Forced                         : No

Menu
00:00:00.000                   : :00:00:00.000
00:08:31.594                   : :00:08:31.594
00:17:43.896                   : :00:17:43.896
00:23:41.795                   : :00:23:41.795
00:31:25.592                   : :00:31:25.592
00:39:37.083                   : :00:39:37.083
00:47:18.461                   : :00:47:18.461
00:58:01.395                   : :00:58:01.395
01:05:58.371                   : :01:05:58.371
01:14:54.156                   : :01:14:54.156
01:23:34.718                   : :01:23:34.718
01:29:48.550                   : :01:29:48.550



Скриншоты:
[+] Всего файлов в раздаче - 1:
Трон эльфов.2016.BDRip-HEVC.1080p.iTunes.mkv7.20 GB

Текущая раздача:
ДатаКомментарии    РазмерПиры
2018-03-11 U Трон эльфов / Throne of Elves (2016) BDRip-HEVC 1080p | iTunes 7.20 GB ↑ 142 ↓ 55

Показать еще раздачи по запросу трон:
2018-03-14 U Трон эльфов / Throne of Elves (2016) BDRip от ExKinoRay | iTunes 1.41 GB ↑ 69 ↓ 8
2018-03-11 U Трон эльфов / Throne of Elves (2016) BDRip 720p | iTunes 2.75 GB ↑ 111 ↓ 69
2018-03-09 U Трон эльфов / Throne of Elves (2016) BDRip от MegaPeer | iTunes 1.42 GB ↑ 216 ↓ 91
2017-09-27 U Трон эльфов / Throne of Elves (2016) HDRip | L 751.71 MB ↑ 186 ↓ 56
2017-09-26 U Трон эльфов / Throne of Elves (2017) BDRip 720p | L 3.15 GB ↑ 280 ↓ 80
2017-08-03 U Гнездо дракона 2: Трон эльфов / Dragon Nest: Throne of Elves (2016) WEB-DLRip 1080p | L 2.77 GB ↑ 150 ↓ 132
2015-01-10 U Царь скорпионов 4: Утерянный трон / The Scorpion King: The Lost Throne / The Scorpion King 4: Quest for Power (2015) BDRip [1080p] 7.93 GB ↑ 1274 ↓ 7

Отзывы
Зарегистрируйтесь чтобы добавить комментарий.
Обратная связь
Copyleft ©