↑↓Torrent.by
Поиск
Логин: Регистрация
Пароль: Восстановить пароль
Загрузка...

Колыбельная / Siembamba / The Lullaby (2018) WEBRip | L2

Скачать kolybelnaya-siembamba-the-lullaby-2018-webrip-l2.torrent
U Магнитная ссылка Размер: 1.33 GB Раздают: 84 Качают: 32 Добавлен: 2018-03-12 09:14:11
Колыбельная / Siembamba / The Lullaby (2018) WEBRip | L2

Название: Колыбельная
Оригинальное название: Siembamba / The Lullaby

Год выхода: 2018
Жанр: ужасы
Режиссер: Даррелл Рудт
В ролях: Брэндон Оре, Рейне Сварт, Дианре Рейнерс, Танди Пурен, Дороти Энн Гулд, Сэмюэль Фрауэнштейн, Шайла-Рей Макфарлейн, Лара де Вильерс и другие
О фильме:
Молодая девушка вернулась в родной городок с ребёнком. Где ей помогают её мама и старый друг. Но одной ночью у неё возникают видения об убийстве собственного сына...

Страна: ЮАР, Cut & Paste Generation
Продолжительность: 01:27:06
Перевод: Любительский (двухголосый закадровый) | HiWay Grope

Файл
Кодек: XviD
Качество: WEBRip
Видео: 720x304, 24 fps, ~1794 kbps, 0.34 bit/pixel
Звук:
Аудио rus: AC3, 48 kHz, 6 ch, 384 Kbps
Субтитры: отсутствуют

Реклама: присутствует

Семпл

Релиз от: HiWay Grope


[+] MediaInfo:

General
Complete name                            : E:The.Lullaby.2017.WEBRip.HiWayGropeThe.Lullaby.2017.WEBRip.HiWayGrope.avi
Format                                   : AVI
Format/Info                              : Audio Video Interleave
File size                                : 1.33 GiB
Duration                                 : 1h 27mn
Overall bit rate                         : 2 188 Kbps
Writing application                      : VirtualDubMod 1.5.10.3 (build 2550/release)
Writing library                          : VirtualDubMod build 2550/release

Video
ID                                       : 0
Format                                   : MPEG-4 Visual
Format profile                           : Advanced Simple@L5
Format settings, BVOP                    : 1
Format settings, QPel                    : No
Format settings, GMC                     : No warppoints
Format settings, Matrix                  : Default (MPEG)
Codec ID                                 : XVID
Codec ID/Hint                            : XviD
Duration                                 : 1h 27mn
Bit rate                                 : 1 794 Kbps
Width                                    : 720 pixels
Height                                   : 304 pixels
Display aspect ratio                     : 2.35:1
Frame rate                               : 24.000 fps
Color space                              : YUV
Chroma subsampling                       : 4:2:0
Bit depth                                : 8 bits
Scan type                                : Progressive
Compression mode                         : Lossy
Bits/(Pixel*Frame)                       : 0.342
Stream size                              : 1.09 GiB (82%)
Writing library                          : XviD 73

Audio
ID                                       : 1
Format                                   : AC-3
Format/Info                              : Audio Coding 3
Mode extension                           : CM (complete main)
Format settings, Endianness              : Big
Codec ID                                 : 2000
Duration                                 : 1h 27mn
Bit rate mode                            : Constant
Bit rate                                 : 384 Kbps
Channel(s)                               : 6 channels
Channel positions                        : Front: L C R, Side: L R, LFE
Sampling rate                            : 48.0 KHz
Frame rate                               : 31.250 fps (1536 spf)
Compression mode                         : Lossy
Stream size                              : 239 MiB (18%)
Alignment                                : Split accross interleaves
Interleave, duration                     : 42 ms (1.00 video frame)
Interleave, preload duration             : 500 ms




Скриншоты:
[+] Всего файлов в раздаче - 1:
The.Lullaby.2017.WEBRip.HiWayGrope.avi1.33 GB

Текущая раздача:
ДатаКомментарии    РазмерПиры
2018-03-12 U Колыбельная / Siembamba / The Lullaby (2018) WEBRip | L2 1.33 GB ↑ 84 ↓ 32

Похожие раздачи по запросу - колыбельная:
2018-03-12 U Колыбельная / Siembamba / The Lullaby (2018) WEBRip 720p | L2 1.74 GB ↑ 44 ↓ 14
2016-02-06 U Колыбельная / Lullaby (2014) WEB-DLRip | P 1.46 GB ↑ 219 ↓ 19
2014-02-19 U Колыбельная для Беллы / LelleBelle (2010) DVDRip | Sub 1.45 GB ↑ 317 ↓ 48

Отзывы
Зарегистрируйтесь чтобы добавить комментарий.
Обратная связь
Copyleft ©